<?xml version="1.0" standalone="no"?>
<!DOCTYPE svg PUBLIC "-//W3C//DTD SVG 1.1//EN" "http://www.w3.org/Graphics/SVG/1.1/DTD/svg11.dtd" >
<svg xmlns="http://www.w3.org/2000/svg">
<metadata>Generated by IcoMoon</metadata>
<defs>
<font id="xpro-icons" horiz-adv-x="1024">
<font-face units-per-em="1024" ascent="819.2" descent="-204.8" />
<missing-glyph horiz-adv-x="1024" />
<glyph unicode="&#x20;" horiz-adv-x="512" d="" />
<glyph unicode="&#xe900;" glyph-name="360" d="M404.111 46.679c33.887-162.89 97.333-260.012 169.963-260.012 73.897 0 140.721 105.567 173.13 276.797 171.23 32.409 276.797 98.705 276.797 173.13 0 108.84-224.858 194.032-512 194.032-8.745 0-15.835-7.090-15.835-15.835s7.090-15.835 15.835-15.835v0c255.894 0 480.33-75.797 480.33-162.362 0-55.212-93.638-109.579-239.215-139.243 9.544 59.333 14.996 127.734 14.996 197.408 0 1.374-0.002 2.747-0.006 4.12l0.001-0.212c0 8.745-7.090 15.835-15.835 15.835s-15.835-7.090-15.835-15.835v0c0.003-1.017 0.005-2.221 0.005-3.425 0-72.095-6.145-142.754-17.941-211.483l1.045 7.363c-62.251-10.801-133.939-16.975-207.070-16.975-28.693 0-57.164 0.95-85.383 2.822l3.832-0.204c-12.225 65.837-19.217 141.588-19.217 218.972 0 1.031 0.001 2.061 0.004 3.091v-0.162c0 255.894 75.797 480.33 162.362 480.33 53.628 0 108.312-92.793 137.976-232.247l-44.866 44.549c-2.868 2.855-6.823 4.62-11.19 4.62-8.761 0-15.863-7.102-15.863-15.863 0-4.393 1.786-8.37 4.672-11.242l78.965-78.965c2.919-2.741 6.858-4.424 11.19-4.424s8.272 1.684 11.199 4.433l-0.009-0.008 78.964 78.964c2.851 2.89 4.611 6.861 4.611 11.243 0 8.843-7.169 16.012-16.012 16.012-4.461 0-8.496-1.824-11.399-4.768l-0.002-0.002-55.634-56.162c-32.937 172.813-97.227 275.53-172.602 275.53-108.84 0-194.032-224.858-194.032-512-0.006-1.412-0.009-3.082-0.009-4.753 0-75.847 6.531-150.168 19.062-222.432l-1.107 7.711c-209.339 18.263-366.318 85.509-366.318 157.4 0 54.261 93.849 109.051 235.309 138.609l-45.288-45.077c-2.848-2.875-4.616-6.823-4.645-11.185v-0.005c0.004-4.371 1.778-8.327 4.645-11.19v0c2.898-2.788 6.844-4.504 11.19-4.504s8.292 1.717 11.195 4.509l78.959 78.959c2.861 2.865 4.631 6.821 4.631 11.19s-1.77 8.325-4.631 11.19v0l-78.964 78.964c-2.898 2.788-6.844 4.504-11.19 4.504s-8.292-1.717-11.195-4.509l0.005 0.005c-2.836-2.876-4.588-6.829-4.588-11.19s1.752-8.314 4.59-11.192l55.949-55.949c-174.080-32.831-277.641-97.227-277.641-173.13 0-93.532 165.951-171.441 404.111-189.915zM574.073-181.663c-54.050 0-106.095 86.459-136.604 226.23 24.703-1.267 49.828-2.006 74.53-2.006 1.161-0.004 2.534-0.006 3.908-0.006 69.675 0 138.076 5.453 204.8 15.955l-7.391-0.958c-29.664-145.577-84.031-239.215-139.243-239.215z" />
<glyph unicode="&#xe901;" glyph-name="access-denied" d="M512 810.667c-282.77 0-512-229.23-512-512s229.23-512 512-512c282.77 0 512 229.23 512 512v0c-0.36 282.625-229.376 511.64-511.966 512h-0.034zM31.67 298.667c0 0.093 0 0.203 0 0.313 0 126.936 49.467 242.318 130.175 327.921l-0.221-0.237 678.374-678.374c-85.625-80.509-201.246-129.976-328.419-129.976-265.046 0-479.908 214.862-479.908 479.908 0 0.156 0 0.313 0 0.469v-0.024zM862.377-29.33l-678.374 678.374c85.672 80.722 201.441 130.33 328.796 130.33 265.046 0 479.908-214.862 479.908-479.908 0-127.355-49.608-243.124-130.555-329.037l0.225 0.241z" />
<glyph unicode="&#xe902;" glyph-name="accessibility" horiz-adv-x="788" d="M365.79 246.939h-31.67v-0.211l31.67 0.211zM263.073-186.941c0.14 0 0.307 0 0.473 0 99.199 0 185.512 55.171 229.929 136.503l0.684 1.368 1.9 4.012v3.906c0 0.004 0 0.009 0 0.014 0 8.687-7.042 15.729-15.729 15.729-6.36 0-11.838-3.774-14.317-9.205l-0.040-0.098c-40.065-72.27-115.898-120.381-202.968-120.381-127.742 0-231.297 103.555-231.297 231.297 0 87.59 48.687 163.808 120.475 203.069l1.207 0.604c5.472 2.572 9.193 8.039 9.193 14.375 0 8.745-7.090 15.835-15.835 15.835-3.136 0-6.059-0.911-8.518-2.484l0.064 0.038c-83.044-45.308-138.441-131.992-138.441-231.614 0-145.233 117.735-262.967 262.967-262.967 0.089 0 0.179 0 0.268 0h-0.014zM310.473 488.582c0 8.745-7.090 15.835-15.835 15.835s-15.835-7.090-15.835-15.835v0-300.76c0.060-46.094 37.41-83.443 83.498-83.503h215.891c28.581-0.060 51.728-23.244 51.728-51.833 0 0 0 0 0 0v0-220.846c0.060-24.85 20.219-44.972 45.077-44.972 0 0 0 0 0 0h97.016c8.745 0 15.835 7.090 15.835 15.835s-7.090 15.835-15.835 15.835v0h-97.016c0 0 0 0 0 0-7.367 0-13.347 5.942-13.407 13.296v220.747c0 46.081-37.326 83.443-83.392 83.503h-215.891c0 0 0 0 0 0-28.627 0-51.833 23.207-51.833 51.833 0 0.037 0 0.074 0 0.111v-0.006 90.049h304.561c8.745 0 15.835 7.090 15.835 15.835s-7.090 15.835-15.835 15.835v0h-304.561zM292.843 541.366c0.063 0 0.137 0 0.211 0 74.395 0 134.704 60.309 134.704 134.704s-60.309 134.704-134.704 134.704c-74.395 0-134.703-60.309-134.704-134.703v0c0.12-74.272 60.237-134.464 134.47-134.703h0.023zM292.843 778.997c0.063 0 0.137 0 0.211 0 56.904 0 103.033-46.13 103.033-103.033s-46.13-103.033-103.033-103.033c-56.904 0-103.033 46.13-103.033 103.033 0 0.037 0 0.074 0 0.111v-0.006c0.12 56.76 46.070 102.748 102.805 102.928h0.017z" />
<glyph unicode="&#xe903;" glyph-name="account" horiz-adv-x="1019" d="M0-197.498c0-8.745 7.090-15.835 15.835-15.835s15.835 7.090 15.835 15.835v0c0 263.88 213.917 477.796 477.796 477.796s477.796-213.917 477.796-477.796v0c0-8.745 7.090-15.835 15.835-15.835s15.835 7.090 15.835 15.835v0c-0.365 247.763-177.276 454.099-411.653 499.967l-3.226 0.526c99.249 39.039 168.221 134.045 168.221 245.161 0 145.116-117.64 262.756-262.756 262.756s-262.756-117.64-262.756-262.756c0-111.116 68.972-206.122 166.44-244.542l1.781-0.619c-237.647-46.35-414.609-252.701-414.984-500.452v-0.041zM278.486 548.016c0 127.567 103.414 230.981 230.981 230.981s230.981-103.414 230.981-230.981c0-127.567-103.414-230.981-230.981-230.981v0c-127.495 0.18-230.801 103.486-230.981 230.963v0.017z" />
<glyph unicode="&#xe904;" glyph-name="accounts" d="M554.86 478.131c-0.201 104.794-85.199 189.668-190.020 189.668-104.945 0-190.021-85.075-190.021-190.021 0-75.125 43.596-140.068 106.869-170.909l1.126-0.495c-163.076-38.701-282.561-182.977-282.814-355.204v-0.029c0-8.745 7.090-15.835 15.835-15.835s15.835 7.090 15.835 15.835v0c0 183.888 149.071 332.958 332.958 332.958s332.958-149.071 332.958-332.958v0c0-8.745 7.090-15.835 15.835-15.835s15.835 7.090 15.835 15.835v0c-0.252 172.255-119.737 316.532-280.331 354.735l-2.483 0.498c64.63 31.254 108.417 96.316 108.417 171.606 0 0.053 0 0.106 0 0.16v-0.008zM364.84 319.78c-87.455 0-158.351 70.896-158.351 158.351s70.896 158.351 158.351 158.351c87.455 0 158.351-70.896 158.351-158.351v0c0 0 0 0 0 0 0-87.455-70.896-158.351-158.351-158.351-0.074 0-0.148 0-0.222 0h0.011zM746.675 304.262c61.625 32.686 102.885 96.438 102.885 169.827 0 11.762-1.060 23.277-3.089 34.454l0.176-1.169c-16.574 89.442-93.982 156.279-187.001 156.279-30.588 0-59.488-7.227-85.085-20.067l1.095 0.498c-5.365-2.647-8.991-8.079-8.991-14.357 0-8.814 7.145-15.958 15.958-15.958 2.535 0 4.932 0.591 7.061 1.643l-0.093-0.042c19.96 9.754 43.432 15.456 68.236 15.456 87.455 0 158.351-70.896 158.351-158.351 0-66.847-41.421-124.019-99.996-147.252l-1.071-0.375c-9.815-3.304-16.758-12.422-16.758-23.162 0-12.229 9.002-22.356 20.741-24.115l0.134-0.017c156.335-29.164 273.102-164.537 273.102-327.182 0-0.027 0-0.053 0-0.080v0.004c0-8.745 7.090-15.835 15.835-15.835s15.835 7.090 15.835 15.835v0c0 0.082 0 0.178 0 0.275 0 170.301-116.886 313.302-274.81 353.154l-2.515 0.538z" />
<glyph unicode="&#xe905;" glyph-name="add-link" d="M319.089 405.84c2.855 2.868 4.621 6.824 4.621 11.192 0 8.762-7.103 15.866-15.866 15.866-4.394 0-8.371-1.786-11.245-4.673l-225.116-225.116c-42.897-43.935-69.36-104.081-69.36-170.408 0-134.766 109.25-244.016 244.016-244.016 66.327 0 126.473 26.463 170.457 69.407l-0.048-0.047 225.115 225.115c2.887 2.874 4.673 6.851 4.673 11.245 0 8.762-7.103 15.866-15.866 15.866-4.368 0-8.324-1.765-11.193-4.621l-225.22-225.22c-38.415-38.363-91.458-62.088-150.042-62.088-117.235 0-212.28 95.008-212.339 212.23v0.006c-0.001 0.19-0.001 0.415-0.001 0.641 0 58.401 23.778 111.249 62.181 149.389l0.012 0.012zM952.728 739.289c-44.163 44.093-105.137 71.361-172.479 71.361s-128.316-27.268-172.483-71.364l-225.218-225.112c-2.887-2.874-4.673-6.851-4.673-11.245 0-8.762 7.103-15.866 15.866-15.866 4.368 0 8.324 1.765 11.193 4.621l225.22 225.22c38.413 38.413 91.479 62.171 150.094 62.171 117.231 0 212.266-95.035 212.266-212.266 0-58.616-23.759-111.682-62.171-150.094v0l-225.115-225.221c-2.862-2.865-4.632-6.822-4.632-11.192 0-8.742 7.083-15.83 15.824-15.838h0.001c4.366 0.040 8.311 1.806 11.194 4.648l225.113 225.219c44.17 44.128 71.492 105.113 71.492 172.479s-27.322 128.351-71.49 172.478l-0.002 0.002zM629.731 438.678l-257.637-257.637c-2.888-2.854-4.676-6.814-4.676-11.192s1.788-8.339 4.675-11.191l0.002-0.002c2.865-2.862 6.822-4.632 11.192-4.632s8.327 1.77 11.193 4.632v0l257.637 257.637c3.105 2.899 5.041 7.017 5.041 11.587 0 8.747-7.091 15.838-15.838 15.838-4.57 0-8.688-1.936-11.579-5.032l-0.009-0.009zM747.674-65.72c0-8.747 7.091-15.838 15.838-15.838v0h97.142v-97.142c0-8.747 7.091-15.838 15.838-15.838s15.838 7.091 15.838 15.838v0 97.142h97.247c8.747 0 15.838 7.091 15.838 15.838s-7.091 15.838-15.838 15.838v0h-97.247v97.142c0 8.747-7.091 15.838-15.838 15.838s-15.838-7.091-15.838-15.838v0-97.142h-97.142c-8.723-0.059-15.779-7.115-15.838-15.833v-0.006z" />
<glyph unicode="&#xe906;" glyph-name="add-new-page" d="M0-62.9c0-14.576 11.816-26.392 26.392-26.392v0h847.175c14.576 0 26.392 11.816 26.392 26.392v0 847.175c0 14.576-11.816 26.392-26.392 26.392v0h-847.175c-14.576 0-26.392-11.816-26.392-26.392v0zM31.67 778.997h836.619v-836.619h-836.619zM1024 670.791c0 8.745-7.090 15.835-15.835 15.835s-15.835-7.090-15.835-15.835v0-847.598c-0.058-2.658-2.198-4.798-4.851-4.856h-847.603c-8.745 0-15.835-7.090-15.835-15.835s7.090-15.835 15.835-15.835v0h847.598c20.173 0 36.526 16.353 36.526 36.526v0zM601.732 376.575h-135.97v135.442c0 8.745-7.090 15.835-15.835 15.835s-15.835-7.090-15.835-15.835v0-135.548h-135.442c-8.745 0-15.835-7.090-15.835-15.835s7.090-15.835 15.835-15.835v0h135.442v-135.865c0-8.745 7.090-15.835 15.835-15.835s15.835 7.090 15.835 15.835v0 135.97h135.97c8.745 0 15.835 7.090 15.835 15.835s-7.090 15.835-15.835 15.835v0z" />
<glyph unicode="&#xe907;" glyph-name="add-new-item" d="M26.392 361.163h396.721c14.576 0 26.392 11.816 26.392 26.392v0 396.721c0 14.576-11.816 26.392-26.392 26.392v0h-396.721c-14.576 0-26.392-11.816-26.392-26.392v0-396.721c0-14.576 11.816-26.392 26.392-26.392v0zM31.67 778.997h386.164v-386.164h-386.164zM1024 784.275c0 14.576-11.816 26.392-26.392 26.392v0h-396.721c-14.576 0-26.392-11.816-26.392-26.392v0-396.721c0-14.576 11.816-26.392 26.392-26.392v0h396.721c14.576 0 26.392 11.816 26.392 26.392v0zM992.33 392.833h-386.164v386.164h386.164zM0-186.941c0-14.576 11.816-26.392 26.392-26.392v0h396.721c14.576 0 26.392 11.816 26.392 26.392v0 396.721c0 14.576-11.816 26.392-26.392 26.392v0h-396.721c-14.576 0-26.392-11.816-26.392-26.392v0zM31.67 204.501h386.164v-386.164h-386.164zM1024 11.419c0 8.745-7.090 15.835-15.835 15.835v0h-193.082v193.082c0 8.745-7.090 15.835-15.835 15.835s-15.835-7.090-15.835-15.835v0-193.082h-193.082c-8.745 0-15.835-7.090-15.835-15.835s7.090-15.835 15.835-15.835v0h193.082v-193.082c0-8.745 7.090-15.835 15.835-15.835s15.835 7.090 15.835 15.835v0 193.082h193.082c8.745 0 15.835 7.090 15.835 15.835v0z" />
<glyph unicode="&#xe908;" glyph-name="plus-circle" d="M131.009 282.832h365.156v-365.156c0-8.745 7.090-15.835 15.835-15.835s15.835 7.090 15.835 15.835v0 365.156h365.156c8.745 0 15.835 7.090 15.835 15.835s-7.090 15.835-15.835 15.835v0h-365.156v365.156c0 8.745-7.090 15.835-15.835 15.835s-15.835-7.090-15.835-15.835v0-365.156h-365.156c-8.745 0-15.835-7.090-15.835-15.835s7.090-15.835 15.835-15.835v0zM512-213.333c282.77 0 512 229.23 512 512s-229.23 512-512 512c-282.77 0-512-229.23-512-512v0c0.36-282.625 229.376-511.64 511.966-512h0.034zM512 778.997c265.279 0 480.33-215.051 480.33-480.33s-215.051-480.33-480.33-480.33c-265.279 0-480.33 215.051-480.33 480.33v0c0.3 265.158 215.172 480.030 480.302 480.33h0.028z" />
<glyph unicode="&#xe909;" glyph-name="plus" d="M15.835 282.832h480.33v-480.33c0-8.745 7.090-15.835 15.835-15.835s15.835 7.090 15.835 15.835v0 480.33h480.33c8.745 0 15.835 7.090 15.835 15.835s-7.090 15.835-15.835 15.835v0h-480.33v480.33c0 8.745-7.090 15.835-15.835 15.835s-15.835-7.090-15.835-15.835v0-480.33h-480.33c-8.745 0-15.835-7.090-15.835-15.835s7.090-15.835 15.835-15.835v0z" />
<glyph unicode="&#xe90a;" glyph-name="aeroplane" d="M6.862 97.034c2.469-1.667 5.512-2.662 8.787-2.662 1.962 0 3.84 0.357 5.574 1.009l-0.109-0.036 407.805 156.134 1.161-242.804-149.905-56.267c-6.060-2.185-10.353-7.797-10.556-14.439l-0.001-0.024-2.956-114.329c-0.001-0.063-0.001-0.138-0.001-0.213 0-8.788 7.065-15.927 15.825-16.045h0.011l456.472-0.633c4.142 0.167 7.847 1.911 10.556 4.644l0.001 0.001c2.931 2.827 4.751 6.788 4.751 11.175 0 0.005 0 0.011 0 0.016v-0.001 114.751c-0.067 6.793-4.4 12.557-10.446 14.745l-0.11 0.035-147.794 56.373v241.643l406.961-153.6c1.644-0.618 3.544-0.975 5.527-0.975 3.24 0 6.258 0.954 8.787 2.597l-0.063-0.038c4.169 2.894 6.864 7.656 6.864 13.049 0 0.089-0.001 0.178-0.002 0.266v-0.013 145.049c0 0.035 0 0.077 0 0.119 0 5.448-2.788 10.244-7.015 13.040l-0.058 0.036-419.312 277.219v161.94c0 0.031 0 0.068 0 0.106 0 47.459-38.473 85.932-85.932 85.932h-0.845c-47.106-0.595-85.077-38.863-85.193-86.026v-161.951l-418.573-278.064c-4.288-2.879-7.073-7.709-7.073-13.19 0-0.002 0-0.004 0-0.006v0-145.471c0-0.029 0-0.064 0-0.098 0-5.375 2.696-10.12 6.809-12.957l0.053-0.034zM31.67 247.15l418.573 278.064c4.276 2.892 7.055 7.718 7.073 13.193v170.388c0.058 29.818 24.064 54.010 53.805 54.367h0.034c30.002-0.060 54.307-24.365 54.367-54.361v-170.391c0.002-5.506 2.833-10.351 7.119-13.159l0.060-0.037 419.629-276.797v-114.118l-406.222 153.811c-1.654 0.64-3.568 1.011-5.569 1.011-3.365 0-6.486-1.050-9.051-2.84l0.051 0.034c-4.164-2.87-6.859-7.613-6.862-12.984v0-275.53c0.067-6.793 4.4-12.557 10.446-14.745l0.11-0.035 147.794-56.267v-88.36l-424.379 0.633 2.534 87.198 150.222 56.478c6.199 2.205 10.557 8.021 10.557 14.855 0 0.011 0 0.021 0 0.032v-0.002l-1.161 276.902c-0.060 5.358-2.737 10.079-6.811 12.951l-0.051 0.034c-2.472 1.738-5.544 2.777-8.859 2.777-2.056 0-4.018-0.4-5.813-1.125l0.104 0.037-407.7-156.028z" />
<glyph unicode="&#xe90b;" glyph-name="all-borders" d="M77.908 282.832h418.256v-418.362c0-8.745 7.090-15.835 15.835-15.835s15.835 7.090 15.835 15.835v0 418.362h418.362c8.745 0 15.835 7.090 15.835 15.835s-7.090 15.835-15.835 15.835v0h-418.362v418.256c0 8.745-7.090 15.835-15.835 15.835s-15.835-7.090-15.835-15.835v0-418.256h-418.256c-8.745 0-15.835-7.090-15.835-15.835s7.090-15.835 15.835-15.835v0zM997.608 810.667h-971.216c-14.576 0-26.392-11.816-26.392-26.392v0-971.216c0-14.576 11.816-26.392 26.392-26.392v0h971.216c14.576 0 26.392 11.816 26.392 26.392v0 971.216c0 14.576-11.816 26.392-26.392 26.392v0zM992.33-181.663h-960.66v960.66h960.66z" />
<glyph unicode="&#xe90c;" glyph-name="anchor" horiz-adv-x="891" d="M214.934 232.16c0 8.745-7.090 15.835-15.835 15.835v0h-183.264c-8.745 0-15.835-7.090-15.835-15.835v0c0-246.039 199.454-445.493 445.493-445.493s445.493 199.454 445.493 445.493v0c0 8.745-7.090 15.835-15.835 15.835v0h-183.159c-8.745 0-15.835-7.090-15.835-15.835s7.090-15.835 15.835-15.835v0h166.901c-8.957-221.202-190.077-397.228-412.481-397.987h-0.075c8.363 0.406 14.991 7.285 14.991 15.712 0 0.006 0 0.012 0 0.018v-0.001 568.267h167.429c8.745 0 15.835 7.090 15.835 15.835s-7.090 15.835-15.835 15.835v0h-167.429v121.719c63.521 8.15 112.112 61.882 112.112 126.964 0 70.663-57.284 127.947-127.947 127.947s-127.947-57.284-127.947-127.947c0-65.081 48.591-118.814 111.474-126.897l0.638-0.067v-121.719h-167.429c-8.745 0-15.835-7.090-15.835-15.835s7.090-15.835 15.835-15.835v0h167.429v-568.267c0-0.005 0-0.011 0-0.017 0-8.427 6.627-15.307 14.954-15.711l0.036-0.001c-222.66 0.526-404.014 176.639-412.952 397.176l-0.026 0.811h167.429c8.745 0 15.835 7.090 15.835 15.835v0zM349.216 682.614c0 0.061 0 0.132 0 0.204 0 53.231 43.152 96.383 96.383 96.383s96.383-43.152 96.383-96.383c0-52.822-42.492-95.72-95.159-96.375l-0.062-0.001h-2.428c-52.636 0.655-95.060 43.45-95.116 96.166v0.005z" />
<glyph unicode="&#xe90d;" glyph-name="app-store" horiz-adv-x="817" d="M423.957 507.901c-20.684 1.128-40.009 5.639-57.865 12.991l1.176-0.429c-1.947 0.585-3.592 1.23-5.171 1.991l0.209-0.091c-4.962 1.795-10.557 3.8-15.096 5.806l-5.595 2.111c-28.532 13.932-61.75 23.377-96.8 26.423l-1.061 0.074h-3.8c-85.097-2.932-158.481-50.395-197.854-119.704l-0.612-1.17c-91.738-159.406-14.568-402.421 69.569-524.14 36.737-52.784 86.671-125.097 140.826-125.097h2.85c24.655 1.916 47.342 8.647 67.689 19.251l-0.97-0.46c34.669 16.947 75.396 26.998 118.435 27.341l0.117 0.001c41.355-0.235 80.395-9.91 115.148-26.978l-1.558 0.691c20.692-11.545 45.377-18.38 71.652-18.474h0.028c53.522 1.056 91.738 50.672 139.771 120.769 17.306 25.266 33.723 54.222 47.667 84.549l1.527 3.705c1.946 4.397 3.078 9.525 3.078 14.918 0 12.671-6.253 23.882-15.842 30.714l-0.115 0.078c-71.346 52.737-117.102 136.555-117.102 231.060 0 75.009 28.825 143.286 76.002 194.358l-0.176-0.193c6.037 6.467 9.744 15.178 9.744 24.754 0 1.769-0.127 3.509-0.371 5.211l0.023-0.195c-1.462 11.294-7.824 20.857-16.847 26.619l-0.149 0.089c-32.346 20.578-71.419 33.413-113.368 35.035l-0.433 0.013c-0.979 0.012-2.137 0.018-3.295 0.018-46.804 0-91.066-10.878-130.398-30.244l1.735 0.772c-23.467-11.62-50.81-19.486-79.685-22.003l-0.863-0.061zM520.234 501.461c33.673 16.722 73.333 26.508 115.278 26.508 0.817 0 1.634-0.004 2.449-0.011l-0.125 0.001c36.348-1.584 69.811-12.656 98.357-30.78l-0.813 0.482c1.565-0.985 2.589-2.703 2.589-4.661 0-1.368-0.501-2.619-1.328-3.581l0.006 0.007c-51.823-55.886-83.618-130.981-83.618-213.503 0-0.837 0.003-1.674 0.010-2.51l-0.001 0.128c-0.004-0.601-0.007-1.313-0.007-2.025 0-104.228 50.739-196.606 128.863-253.78l0.885-0.618c1.727-1.078 2.859-2.968 2.859-5.122 0-0.699-0.119-1.37-0.338-1.993l0.013 0.042c-14.551-32.14-30.055-59.505-47.681-85.307l1.231 1.909c-42.121-62.179-75.692-106.2-113.907-106.939-20.867 0.199-40.409 5.692-57.402 15.197l0.607-0.312c-37.393 18.609-81.407 29.608-127.964 29.875h-0.089c-48.303-0.307-93.903-11.571-134.537-31.426l1.84 0.812c-15.694-8.218-34.046-13.756-53.495-15.479l-0.556-0.040h-1.689c-37.371 0-87.621 72.525-114.435 111.479-79.492 114.857-153.178 342.459-68.196 490.253 34.581 61.148 98.198 102.332 171.628 104.819l0.34 0.009h0.633c32.284-2.927 61.938-11.457 88.912-24.626l-1.503 0.662 6.545-2.639 14.779-5.701c2.322-0.95 4.856-1.795 6.123-2.217 19.387-7.933 41.842-12.994 65.344-14.026l0.424-0.015c0.948-0.076 2.052-0.119 3.167-0.119s2.219 0.043 3.312 0.128l-0.145-0.009c33.79 2.942 64.857 11.86 93.069 25.703l-1.542-0.684zM449.715 590.56c44.684 16.24 82.467 42.267 112.19 75.63l0.239 0.273c27.926 34.075 47.889 75.73 56.428 121.409l0.261 1.683c0.191 0.979 0.3 2.105 0.3 3.256 0 9.853-7.988 17.841-17.841 17.841-2.152 0-4.214-0.381-6.124-1.079l0.124 0.040c-44.684-16.24-82.467-42.267-112.19-75.63l-0.239-0.273c-27.959-34.236-47.927-76.074-56.43-121.935l-0.259-1.684c-0.193-0.98-0.304-2.107-0.304-3.26 0-5.42 2.446-10.269 6.294-13.503l0.027-0.022c3.004-2.572 6.896-4.185 11.16-4.327l0.030-0.001c2.321 0.102 4.484 0.676 6.43 1.626l-0.096-0.042zM463.545 630.675c9.327 31.739 24.137 59.292 43.506 82.969l-0.329-0.415c20.314 23.199 44.87 42.118 72.535 55.665l1.362 0.602c-8.999-31.699-23.504-59.267-42.578-83.006l0.351 0.452c-20.591-23.248-45.464-42.18-73.456-55.663l-1.391-0.604z" />
<glyph unicode="&#xe90e;" glyph-name="arrow-down-left" d="M1019.355 806.022c-2.853 2.887-6.813 4.675-11.19 4.675s-8.337-1.788-11.189-4.674l-945.988-945.46c-0.698 2.124-1.153 4.577-1.265 7.12l-0.002 0.058-18.052 772.539c-0.044 4.787-2.151 9.073-5.473 12.020l-0.017 0.015c-2.553 2.369-5.984 3.823-9.755 3.823-0.282 0-0.562-0.008-0.84-0.024l0.038 0.002c-4.166-0.238-7.868-2.053-10.551-4.851l-0.005-0.006c-3.122-2.935-5.067-7.091-5.067-11.702 0-0.006 0-0.011 0-0.017v0.001l18.052-773.489c0.751-16.495 7.577-31.264 18.276-42.24l-0.013 0.014 1.478-1.372c11.001-10.622 25.747-17.43 42.070-18.257l0.157-0.006 773.278-17.524c8.613 0.056 15.601 6.933 15.835 15.497v0.022c0.002 0.095 0.003 0.207 0.003 0.32 0 8.635-6.912 15.656-15.505 15.832h-0.016l-772.434 18.052c-2.648 0.14-5.134 0.631-7.478 1.43l0.194-0.057 945.88 945.88c2.763 2.832 4.468 6.708 4.468 10.982 0 4.483-1.875 8.527-4.884 11.393l-0.006 0.006z" />
<glyph unicode="&#xe90f;" glyph-name="arrow-down-right" d="M1008.482 655.8v0c-0.064 0.001-0.14 0.001-0.217 0.001-8.656 0-15.7-6.899-15.935-15.498v-0.022l-18.052-772.434c-0.097-2.785-0.591-5.422-1.429-7.901l0.057 0.194-945.88 945.88c-2.82 2.633-6.619 4.25-10.795 4.25-8.745 0-15.835-7.090-15.835-15.835 0-4.176 1.617-7.975 4.258-10.804l945.449-945.871c-2.123-0.77-4.576-1.264-7.129-1.371l-0.050-0.002-772.645-18.052c-4.166-0.238-7.868-2.053-10.551-4.851l-0.005-0.006c-2.657-2.84-4.288-6.668-4.288-10.877 0-8.678 6.935-15.737 15.565-15.936h0.019l773.595 18.052c16.259 0.934 30.773 7.726 41.608 18.277l-0.014-0.014 1.478 1.372c10.606 11.011 17.409 25.751 18.256 42.066l0.007 0.16 18.052 772.962c0.004 0.127 0.006 0.276 0.006 0.425 0 8.636-6.913 15.658-15.508 15.832h-0.016z" />
<glyph unicode="&#xe910;" glyph-name="arrow-down-circle" d="M512 810.667c-282.77 0-512-229.23-512-512s229.23-512 512-512c282.77 0 512 229.23 512 512v0c-0.36 282.625-229.376 511.64-511.966 512h-0.034zM512-181.663c-265.279 0-480.33 215.051-480.33 480.33s215.051 480.33 480.33 480.33c265.279 0 480.33-215.051 480.33-480.33v0c-0.3-265.158-215.172-480.030-480.302-480.33h-0.028zM676.368 270.903l-148.533-141.776v370.54c0 8.745-7.090 15.835-15.835 15.835s-15.835-7.090-15.835-15.835v0-370.54l-148.533 141.776c-2.798 2.54-6.53 4.094-10.625 4.094-8.745 0-15.835-7.090-15.835-15.835 0-4.358 1.76-8.305 4.609-11.168l-0.001 0.001 165.951-158.351c5.13-4.582 11.866-7.463 19.27-7.705l0.049-0.001h2.006c7.588 0.363 14.416 3.343 19.665 8.049l-0.030-0.026 165.529 158.351c3.205 2.909 5.21 7.091 5.21 11.741 0 8.745-7.090 15.835-15.835 15.835-4.388 0-8.358-1.784-11.226-4.667l-0.001-0.001z" />
<glyph unicode="&#xe911;" glyph-name="arrow-down" horiz-adv-x="677" d="M309.945-202.776v0c7.39-6.541 17.161-10.541 27.866-10.557h2.009c10.624 0.131 20.295 4.108 27.708 10.599l-0.049-0.042 304.561 291.576c2.848 2.863 4.608 6.809 4.608 11.167 0 8.745-7.090 15.835-15.835 15.835-4.095 0-7.827-1.555-10.639-4.106l0.013 0.012-295.904-282.814v965.938c0 8.745-7.090 15.835-15.835 15.835s-15.835-7.090-15.835-15.835v0-965.938l-295.588 282.392c-2.738 2.325-6.313 3.738-10.218 3.738-8.745 0-15.835-7.090-15.835-15.835 0-3.984 1.471-7.625 3.9-10.408l-0.016 0.019z" />
<glyph unicode="&#xe912;" glyph-name="arrow-left-circle" d="M512-213.333c282.77 0 512 229.23 512 512s-229.23 512-512 512c-282.77 0-512-229.23-512-512v0c0.36-282.625 229.376-511.64 511.966-512h0.034zM512 778.997c265.279 0 480.33-215.051 480.33-480.33s-215.051-480.33-480.33-480.33c-265.279 0-480.33 215.051-480.33 480.33v0c0.3 265.158 215.172 480.030 480.302 480.33h0.028zM303.294 277.976l158.351-165.529c2.863-2.848 6.809-4.608 11.167-4.608 8.745 0 15.835 7.090 15.835 15.835 0 4.095-1.555 7.827-4.106 10.639l0.012-0.013-142.093 148.533h370.54c8.745 0 15.835 7.090 15.835 15.835s-7.090 15.835-15.835 15.835v0h-370.54l141.776 148.533c2.883 2.869 4.668 6.839 4.668 11.227 0 8.745-7.090 15.835-15.835 15.835-4.65 0-8.832-2.004-11.729-5.196l-0.012-0.013-158.351-165.951c-4.469-5.126-7.243-11.832-7.389-19.183v-2.141c0.269-7.551 3.14-14.383 7.739-19.674l-0.033 0.039z" />
<glyph unicode="&#xe913;" glyph-name="arrow-right-circle" d="M512 810.667c-282.77 0-512-229.23-512-512s229.23-512 512-512c282.77 0 512 229.23 512 512v0c-0.36 282.625-229.376 511.64-511.966 512h-0.034zM512-181.663c-265.279 0-480.33 215.051-480.33 480.33s215.051 480.33 480.33 480.33c265.279 0 480.33-215.051 480.33-480.33v0c-0.3-265.158-215.172-480.030-480.302-480.33h-0.028zM720.706 319.358l-158.351 165.529c-2.863 2.848-6.809 4.608-11.167 4.608-8.745 0-15.835-7.090-15.835-15.835 0-4.095 1.555-7.827 4.106-10.639l-0.012 0.013 142.093-148.533h-370.435c-8.745 0-15.835-7.090-15.835-15.835s7.090-15.835 15.835-15.835v0h370.435l-141.776-148.533c-2.883-2.869-4.668-6.839-4.668-11.227 0-8.745 7.090-15.835 15.835-15.835 4.65 0 8.832 2.004 11.729 5.196l0.012 0.013 158.351 165.951c4.469 5.126 7.243 11.832 7.389 19.183v2.141c-0.269 7.551-3.14 14.383-7.739 19.674l0.033-0.039z" />
<glyph unicode="&#xe914;" glyph-name="arrow-right" d="M1013.443 326.642l-291.576 304.983c-2.863 2.848-6.809 4.608-11.167 4.608-8.745 0-15.835-7.090-15.835-15.835 0-4.095 1.555-7.827 4.106-10.639l-0.012 0.013 282.814-295.904h-965.938c-8.745 0-15.835-7.090-15.835-15.835s7.090-15.835 15.835-15.835v0h965.938l-282.392-295.588c-2.682-2.846-4.33-6.692-4.33-10.922 0-4.495 1.861-8.556 4.854-11.454l0.004-0.004c2.744-2.626 6.453-4.263 10.544-4.328h0.013c0.037 0 0.081-0.001 0.125-0.001 4.438 0 8.441 1.863 11.269 4.849l0.007 0.007 291.576 304.878c6.451 7.286 10.431 16.89 10.556 27.421v1.61c-0.090 10.732-4.072 20.516-10.602 28.028l0.045-0.053z" />
<glyph unicode="&#xe915;" glyph-name="arrow-up-left" d="M15.411-58.377v0c0.127-0.004 0.277-0.006 0.428-0.006 8.598 0 15.596 6.853 15.827 15.396v0.021l18.050 772.46c0.129 2.645 0.622 5.132 1.429 7.472l-0.057-0.188 945.783-945.783c2.865-2.861 6.82-4.631 11.189-4.631s8.324 1.769 11.189 4.631v0c2.867 2.881 4.64 6.855 4.64 11.242s-1.772 8.36-4.64 11.242l-945.36 946.099c2.096 0.673 4.538 1.16 7.060 1.365l0.118 0.008 772.46 18.050c4.18 0.168 7.903 1.999 10.547 4.846l0.009 0.010c2.745 2.813 4.438 6.662 4.438 10.907 0 0.136-0.002 0.272-0.005 0.407v-0.020c0 0.039 0.001 0.085 0.001 0.131 0 4.588-1.9 8.732-4.957 11.687l-0.005 0.004c-2.495 2.253-5.818 3.631-9.462 3.631-0.385 0-0.766-0.015-1.143-0.046l0.050 0.003-773.621-18.050c-16.267-0.883-30.794-7.686-41.6-18.272l0.011 0.011-1.478-1.372c-10.605-11.010-17.407-25.748-18.255-42.062l-0.007-0.16-18.050-772.882c-0.003-0.11-0.004-0.24-0.004-0.371 0-4.232 1.649-8.078 4.34-10.932l-0.007 0.008c2.811-2.92 6.723-4.762 11.066-4.855h0.017z" />
<glyph unicode="&#xe916;" glyph-name="arrow-up-right" d="M987.685 772.874l-1.478 1.478c-11.011 10.606-25.751 17.409-42.066 18.256l-0.16 0.007-773.278 18.052c-8.745 0-15.835-7.090-15.835-15.835s7.090-15.835 15.835-15.835v0l772.117-18.052c2.785-0.097 5.422-0.591 7.901-1.429l-0.194 0.057-945.88-945.88c-3.105-2.899-5.040-7.016-5.040-11.585 0-8.745 7.090-15.835 15.835-15.835 4.569 0 8.686 1.935 11.577 5.031l945.995 945.467c0.698-2.124 1.153-4.577 1.265-7.12l0.002-0.058 18.052-772.539c0.293-8.632 7.361-15.519 16.038-15.519 0.040 0 0.080 0 0.12 0h-0.006c8.6 0.114 15.527 7.112 15.527 15.728 0 0.186-0.003 0.371-0.010 0.556l0.001-0.027-18.052 773.489c-0.934 16.259-7.726 30.773-18.277 41.608l0.014-0.014z" />
<glyph unicode="&#xe917;" glyph-name="arrow-up-circle" d="M512 810.667c-282.77 0-512-229.23-512-512s229.23-512 512-512c282.77 0 512 229.23 512 512v0c-0.36 282.625-229.376 511.64-511.966 512h-0.034zM512-181.663c-265.279 0-480.33 215.051-480.33 480.33s215.051 480.33 480.33 480.33c265.279 0 480.33-215.051 480.33-480.33v0c-0.3-265.158-215.172-480.030-480.302-480.33h-0.028zM532.374 507.584v0c-5.14 4.529-11.887 7.343-19.287 7.495l-0.031 0.001h-2.111c-7.588-0.363-14.416-3.343-19.665-8.049l0.030 0.026-165.529-158.351c-2.848-2.863-4.608-6.809-4.608-11.167 0-8.745 7.090-15.835 15.835-15.835 4.095 0 7.827 1.555 10.639 4.106l-0.013-0.012 148.533 142.41v-370.54c0-8.745 7.090-15.835 15.835-15.835s15.835 7.090 15.835 15.835v0 370.54l148.533-141.776c2.898-2.788 6.844-4.504 11.19-4.504s8.292 1.717 11.195 4.509l-0.005-0.005c2.861 2.865 4.631 6.821 4.631 11.19s-1.77 8.325-4.631 11.19v0z" />
<glyph unicode="&#xe918;" glyph-name="arrow-up" horiz-adv-x="677" d="M672.567 486.154c2.707 2.836 4.373 6.686 4.373 10.926 0 4.502-1.879 8.565-4.895 11.449l-0.006 0.006-305.194 291.576c-7.261 6.429-16.823 10.404-27.31 10.556h-1.72c-10.723-0.281-20.424-4.439-27.801-11.117l0.037 0.033-305.194-291.048c-3.205-2.909-5.21-7.091-5.21-11.741 0-8.745 7.090-15.835 15.835-15.835 4.388 0 8.358 1.784 11.226 4.667l0.001 0.001 295.904 282.814v-965.938c0-8.745 7.090-15.835 15.835-15.835s15.835 7.090 15.835 15.835v0 965.938l295.588-282.392c2.921-2.824 6.904-4.564 11.294-4.564 4.443 0 8.47 1.782 11.405 4.671l-0.002-0.002z" />
<glyph unicode="&#xe919;" glyph-name="atom" horiz-adv-x="916" d="M901.437 554.667c-31.037 53.734-107.362 75.797-214.723 61.862-15.624-2.006-32.304-4.856-49.616-8.551-41.699 128.792-106.834 202.689-179.042 202.689s-137.237-73.897-178.831-202.266c-132.17 28.186-228.553 8.762-264.551-53.734s-4.856-155.711 85.72-256c-90.576-100.289-121.508-193.504-85.72-256 25.019-43.388 79.070-65.979 156.134-65.979 38.659 0.459 76.008 5.012 111.955 13.244l-3.538-0.682c41.699-128.686 106.728-202.583 178.831-202.583s137.237 73.897 179.464 202.689c17.313-3.695 33.993-6.545 49.616-8.551 17.815-2.536 38.462-4.030 59.44-4.117h0.1c76.747 0 129.531 22.802 154.761 65.979 31.037 53.734 11.929 130.798-53.734 216.94-9.712 12.668-21.113 25.758-32.62 39.060 11.929 13.301 22.908 26.392 32.62 39.060 65.663 86.143 84.77 163.207 53.734 216.94zM678.057 381.22c34.393-26.445 64.945-53.483 93.543-82.457l0.095-0.097c-28.693-29.070-59.245-56.109-91.539-80.999l-2.099-1.555c1.9 27.447 2.85 55.212 2.85 82.553s-0.95 55-2.85 82.553zM674.468 173.887c44.064 31.98 82.884 65.341 118.797 101.589l0.072 0.072c10.557-12.14 20.586-23.858 29.136-35.154 56.689-73.897 75.48-140.51 51.517-181.892s-90.682-58.273-183.264-46.344c-13.935 1.9-28.925 4.434-44.549 7.706 12.431 43.918 22.401 96.259 27.948 149.913l0.344 4.109zM793.336 321.681c-35.984 36.32-74.804 69.681-116.153 99.778l-2.715 1.883c-5.891 57.762-15.861 110.103-29.883 160.761l1.591-6.738c15.729 3.273 30.72 5.806 44.549 7.601 16.302 2.398 35.248 3.851 54.502 4.010l0.182 0.001c64.29 0 109.684-17.841 128.581-50.144 23.964-41.382 5.173-107.678-51.517-181.892-8.656-11.296-18.369-23.119-29.136-35.154zM639.208 149.184c-6.378-46.97-15.091-88.235-26.477-128.377l1.563 6.447c-46.681 12.171-86.002 25.702-123.979 41.788l5.849-2.2c24.492 12.035 48.983 25.019 72.841 38.849s47.505 28.292 70.202 43.494zM458.055-181.663c-55.212 0-109.684 66.507-146.844 178.092 57.258 15.581 106.094 33.589 152.893 55.252l-5.944-2.468c40.777-18.891 89.601-36.623 140.070-50.367l6.774-1.572c-36.843-112.323-91.632-178.936-146.949-178.936zM346.682 105.691c23.647-13.618 47.927-26.603 72.525-38.638-31.865-13.704-70.976-27.127-111.193-37.842l-6.303-1.429c-9.811 33.59-18.488 74.677-24.276 116.686l-0.532 4.716c22.802-15.307 46.133-29.875 69.78-43.494zM276.902 448.15c6.335 46.744 15.011 87.831 26.36 127.794l-1.552-6.392c46.607-12.253 85.678-25.673 123.471-41.535l-6.080 2.264c-24.492-12.035-48.772-25.019-72.419-38.638s-46.977-28.186-69.78-43.494zM458.055 778.997c55.317 0 110.106-66.613 146.949-178.619-57.12-15.171-105.951-32.909-152.727-54.357l5.883 2.418c-40.931 19.288-89.772 37.299-140.307 51.223l-6.642 1.561c37.16 111.268 91.632 177.775 146.844 177.775zM569.428 491.643c-23.647 13.618-48.139 26.708-72.841 38.849 32.028 13.89 71.205 27.42 111.512 38.181l6.195 1.407c9.822-33.695 18.536-74.96 24.372-117.145l0.542-4.785c-22.697 15.202-46.133 29.875-69.78 43.494zM649.237 298.667c0-35.787-1.795-71.997-5.173-107.678-29.031-20.48-59.434-39.904-90.471-57.851s-63.34-34.52-95.749-49.3c-31.67 14.779-64.29 31.67-95.010 49.3s-61.44 37.476-90.471 58.167c-3.378 35.576-5.173 71.68-5.173 107.362s1.795 71.786 5.173 107.362c29.136 21.113 59.54 40.327 90.471 58.167s63.34 34.52 95.010 49.3c32.62-14.885 64.924-31.67 95.749-49.3s61.44-37.371 90.471-57.956c3.378-35.576 5.173-71.786 5.173-107.573zM238.054 216.536c-34.014 26.292-64.257 53.189-92.559 82l-0.128 0.131c28.43 28.942 58.674 55.839 90.647 80.611l2.040 1.52c-1.9-27.447-2.85-55-2.85-82.131s0.95-54.789 2.85-82.131zM241.643 423.553c-44-31.82-82.747-64.94-118.643-100.908l-0.015-0.015c-78.331 87.726-108.523 168.379-80.759 216.201 18.685 32.409 62.601 49.616 126.68 49.616 35.967-0.473 70.701-4.64 104.176-12.139l-3.359 0.632c-12.351-43.746-22.248-95.877-27.741-149.314l-0.339-4.075zM122.986 274.703c35.899-36.016 74.648-69.138 115.898-99.019l2.759-1.903c5.873-57.528 15.805-109.654 29.772-160.104l-1.586 6.715c-115.174-23.858-200.155-9.712-227.602 38.11s2.428 128.475 80.759 216.201z" />
<glyph unicode="&#xe91a;" glyph-name="avatar" d="M512 810.667c-282.527-0.090-511.525-229.144-511.525-511.683 0-142.649 58.373-271.665 152.536-364.463l0.061-0.060c0.999-1.187 2.107-2.228 3.326-3.13l0.052-0.037c91.886-89.323 217.471-144.399 355.919-144.399s264.034 55.077 356.040 144.516l-0.12-0.117c1.209 0.965 2.281 2.003 3.246 3.135l0.027 0.033c94.224 92.858 152.597 221.874 152.597 364.523 0 282.539-228.998 511.593-511.517 511.683h-0.008zM512 778.997c0.089 0 0.195 0 0.3 0 265.104 0 480.013-214.909 480.013-480.013 0-123.489-46.631-236.086-123.246-321.144l0.382 0.431c-28.62 140.974-135.878 250.883-273.075 282.964l-2.455 0.484c64.457 31.316 108.101 96.289 108.101 171.455 0 104.945-85.075 190.021-190.021 190.021s-190.021-85.075-190.021-190.021c0-75.167 43.644-140.139 106.973-170.96l1.127-0.495c-139.732-32.611-247.023-142.658-275.136-281.435l-0.394-2.329c-76.404 84.67-123.148 197.391-123.148 321.030 0 265.104 214.909 480.013 480.013 480.013 0.206 0 0.411 0 0.617 0h-0.032zM353.649 433.476c0 87.455 70.896 158.351 158.351 158.351s158.351-70.896 158.351-158.351c0-87.455-70.896-158.351-158.351-158.351v0c-0.063 0-0.137 0-0.211 0-87.455 0-158.351 70.896-158.351 158.351v0zM182.103-49.915c22.237 164.121 161.45 289.288 329.897 289.288s307.66-125.167 329.706-287.568l0.191-1.72c-85.714-81.556-201.946-131.728-329.897-131.728s-244.183 50.172-330.097 131.917l0.2-0.189z" />
<glyph unicode="&#xe91b;" glyph-name="badge-2" horiz-adv-x="885" d="M10.557-107.766c3.497-2.434 7.833-3.889 12.51-3.889s9.013 1.455 12.582 3.937l-0.072-0.048 156.134 46.133 89.943-135.442c2.377-8.726 9.757-15.217 18.795-16.248l0.101-0.009h1.795c11.908 0.767 21.711 8.962 24.866 19.968l0.048 0.195 115.385 346.893h12.879l93.427-336.442c2.62-12.21 12.818-21.404 25.336-22.478l0.106-0.007c0.072-0.001 0.158-0.001 0.243-0.001 8.989 0 16.751 5.25 20.389 12.85l0.059 0.136 101.661 127.842 151.489-59.118c3.745-2.955 8.533-4.741 13.737-4.741 4.074 0 7.892 1.094 11.177 3.003l-0.106-0.057c7.277 5.1 11.975 13.448 11.975 22.893 0 3.14-0.519 6.158-1.476 8.974l0.058-0.196-128.475 465.867c12.039 32.78 19.002 70.632 19.002 110.11 0 181.439-147.085 328.525-328.525 328.525s-328.525-147.085-328.525-328.525c0-0.076 0-0.151 0-0.227v0.012c0-0.103 0-0.224 0-0.346 0-46.103 9.592-89.965 26.889-129.701l-0.814 2.099-140.721-428.496c-1.617-3.408-2.561-7.406-2.561-11.623 0-8.852 4.159-16.733 10.629-21.796l0.061-0.046zM850.976-90.453l-153.178 59.856c-1.706 0.68-3.683 1.074-5.752 1.074-4.998 0-9.459-2.301-12.382-5.901l-0.023-0.030-103.139-128.897-88.782 320.501c107.396 14.464 197.175 78.912 246.272 168.771l0.86 1.719zM445.598 778.997c0.068 0 0.149 0 0.23 0 163.832 0 296.643-132.812 296.643-296.643 0-36.049-6.43-70.596-18.206-102.556l0.663 2.056c-1.007-1.671-1.777-3.617-2.197-5.688l-0.020-0.118c-44.010-112.365-151.418-190.518-277.097-190.654h-11.101c-0.762 0.126-1.639 0.197-2.534 0.197s-1.772-0.072-2.628-0.21l0.094 0.012c-160.468 4.504-288.836 135.662-288.836 296.802 0 163.98 132.932 296.912 296.912 296.912 2.84 0 5.67-0.040 8.491-0.119l-0.415 0.009zM163.418 314.502c52.336-86.599 141.368-146.488 244.996-158.212l1.503-0.138-108.417-327.258-90.365 136.393c-2.876 4.304-7.716 7.1-13.208 7.1-1.614 0-3.172-0.242-4.639-0.69l0.112 0.030-157.823-46.555z" />
<glyph unicode="&#xe91c;" glyph-name="badge" horiz-adv-x="629" d="M628.863 496.288c0 0.202 0.001 0.442 0.001 0.681 0 173.685-140.799 314.484-314.484 314.484s-314.484-140.799-314.484-314.484c0-110.551 57.043-207.779 143.302-263.856l1.219-0.743 2.111-416.884c-0.010-0.279-0.015-0.607-0.015-0.936 0-12.185 7.703-22.571 18.505-26.553l0.196-0.063c1.768-0.51 3.799-0.803 5.898-0.803 7.006 0 13.25 3.266 17.292 8.358l0.035 0.046 124.991 91.843 124.675-92.16c4.099-5.182 10.366-8.493 17.409-8.551h0.010c2.079 0.032 4.074 0.338 5.966 0.884l-0.16-0.040c10.687 3.654 18.234 13.61 18.234 25.328 0 0.709-0.028 1.411-0.082 2.106l0.006-0.092-2.428 412.345c91.547 56.096 151.721 155.556 151.805 269.078v0.012zM447.71-172.584l-124.886 91.949c-2.593 1.929-5.859 3.089-9.395 3.089s-6.802-1.159-9.438-3.119l0.042 0.030-125.836-92.477-2.006 387.009c35.663-17.901 77.414-29.339 121.584-31.638l0.768-0.032v-76.008c0-8.745 7.090-15.835 15.835-15.835s15.835 7.090 15.835 15.835v0 76.008c42.179 2.148 81.47 12.353 117.079 29.097l-1.905-0.805zM314.379 213.474c-156.194 0-282.814 126.62-282.814 282.814s126.62 282.814 282.814 282.814c156.194 0 282.814-126.62 282.814-282.814v0c-0.18-156.122-126.693-282.634-282.797-282.814h-0.017z" />
<glyph unicode="&#xe91d;" glyph-name="bag" horiz-adv-x="925" d="M8.023-201.509c6.47-7.268 15.851-11.824 26.297-11.824 0.071 0 0.141 0 0.211 0.001h855.715c0.060 0 0.13-0.001 0.201-0.001 10.446 0 19.827 4.556 26.266 11.789l0.031 0.035c4.963 5.651 7.991 13.107 7.991 21.27 0 1.508-0.103 2.992-0.303 4.446l0.019-0.169-107.573 792.492c-2.689 16.376-16.739 28.718-33.671 28.718-0.187 0-0.374-0.002-0.561-0.005h-149.244c-3.331 91.945-78.671 165.218-171.124 165.218s-167.793-73.273-171.115-164.915l-0.009-0.303h-149.061c-0.158 0.003-0.345 0.004-0.533 0.004-16.932 0-30.982-12.342-33.644-28.521l-0.027-0.198-107.889-792.492c-0.156-1.191-0.244-2.568-0.244-3.965 0-8.31 3.138-15.887 8.293-21.611l-0.026 0.029zM462.384 778.997c0.641 0.011 1.397 0.017 2.155 0.017 74.575 0 135.257-59.483 137.19-133.591l0.004-0.179h-278.802c1.935 74.288 62.618 133.772 137.193 133.772 0.795 0 1.588-0.007 2.38-0.020l-0.119 0.002zM139.243 612.201s1.161 1.372 2.85 1.372h640.581c0.086 0.009 0.187 0.014 0.288 0.014 1.067 0 2.007-0.546 2.555-1.375l0.007-0.011 107.362-792.808c-0.65-0.653-1.55-1.057-2.544-1.057-0.034 0-0.067 0-0.1 0.001h-855.721c-0.008 0-0.018 0-0.027 0-1.142 0-2.16 0.534-2.817 1.365l-0.006 0.008z" />
<glyph unicode="&#xe91e;" glyph-name="bar-graph" d="M663.172-186.941v971.216c0 14.576-11.816 26.392-26.392 26.392v0h-249.56c-14.576 0-26.392-11.816-26.392-26.392v0-971.216c0-14.576 11.816-26.392 26.392-26.392v0h249.56c14.576 0 26.392 11.816 26.392 26.392v0zM631.502-181.663h-239.004v960.66h239.004zM26.392-213.333h249.56c14.576 0 26.392 11.816 26.392 26.392v0 429.974c0 14.576-11.816 26.392-26.392 26.392v0h-249.56c-14.576 0-26.392-11.816-26.392-26.392v0-429.974c0-14.576 11.816-26.392 26.392-26.392v0zM31.67-181.663v419.418h239.004v-419.418zM997.608 449.839h-249.56c-14.552-0.060-26.332-11.84-26.392-26.386v-610.394c0.060-14.552 11.84-26.332 26.386-26.392h249.566c14.576 0 26.392 11.816 26.392 26.392v0 610.388c0 14.576-11.816 26.392-26.392 26.392v0zM992.33-181.663h-239.004v599.832h239.004z" />
<glyph unicode="&#xe91f;" glyph-name="battery-full" d="M842.741 96.084h-294.849c-8.745 0-15.835-7.090-15.835-15.835s7.090-15.835 15.835-15.835v0h294.849c19.065 0 34.52 15.455 34.52 34.52v0 397.46c-0.060 19.041-15.479 34.461-34.515 34.52h-277.858c-8.745 0-15.835-7.090-15.835-15.835s7.090-15.835 15.835-15.835v0h277.852c1.574 0 2.85-1.276 2.85-2.85v-397.46c0-1.574-1.276-2.85-2.85-2.85v0zM329.369 530.914h-294.849c-19.041-0.060-34.461-15.479-34.52-34.515v-397.466c0-19.065 15.455-34.52 34.52-34.52v0h277.852c8.745 0 15.835 7.090 15.835 15.835s-7.090 15.835-15.835 15.835v0h-277.852c-0.032-0.001-0.070-0.002-0.108-0.002-1.516 0-2.745 1.229-2.745 2.745 0 0.038 0.001 0.076 0.002 0.113v-0.005 397.46c0 1.574 1.276 2.85 2.85 2.85v0h294.849c8.745 0 15.835 7.090 15.835 15.835s-7.090 15.835-15.835 15.835v0zM992.33 381.537v-161.201c0-8.745 7.090-15.835 15.835-15.835s15.835 7.090 15.835 15.835v0 161.201c0 8.745-7.090 15.835-15.835 15.835s-15.835-7.090-15.835-15.835v0zM455.205 528.275c-2.312 1.397-5.105 2.223-8.091 2.223-5.79 0-10.854-3.107-13.616-7.745l-0.040-0.073-129.108-216.94c-1.411-2.321-2.246-5.127-2.246-8.129 0-8.745 7.090-15.835 15.835-15.835 0.010 0 0.020 0 0.030 0h213.56l-114.962-192.976c-1.356-2.295-2.157-5.058-2.157-8.007 0-5.823 3.123-10.917 7.785-13.699l0.073-0.040c2.329-1.382 5.131-2.204 8.125-2.217h0.004c5.511 0.22 10.275 3.223 12.945 7.636l0.040 0.071 129.531 217.046c1.344 2.269 2.138 5 2.138 7.918s-0.794 5.649-2.178 7.991l0.040-0.073c-2.729 4.709-7.682 7.863-13.385 8.023h-213.69l114.857 193.082c1.39 2.317 2.212 5.113 2.212 8.101 0 5.759-3.054 10.805-7.631 13.606l-0.070 0.040z" />
<glyph unicode="&#xe920;" glyph-name="battery" d="M0 70.431c0-14.576 11.816-26.392 26.392-26.392v0h845.803c14.576 0 26.392 11.816 26.392 26.392v0 460.483c0 14.576-11.816 26.392-26.392 26.392v0h-845.803c-14.576 0-26.392-11.816-26.392-26.392v0zM31.67 525.636h835.246v-449.927h-835.246zM1024 396.95c0 8.745-7.090 15.835-15.835 15.835s-15.835-7.090-15.835-15.835v0-178.514c0-8.745 7.090-15.835 15.835-15.835s15.835 7.090 15.835 15.835v0z" />
<glyph unicode="&#xe921;" glyph-name="bed" d="M160.884 370.347c0-0.031 0-0.068 0-0.106 0-63.084 51.14-114.224 114.224-114.224s114.224 51.14 114.224 114.224c0 63.084-51.14 114.224-114.224 114.224-0.037 0-0.074 0-0.111 0h0.006c-63.001-0.060-114.058-51.116-114.118-114.112v-0.006zM357.555 370.347c0-0.031 0-0.068 0-0.106 0-45.593-36.96-82.553-82.553-82.553s-82.553 36.96-82.553 82.553c0 45.593 36.96 82.553 82.553 82.553v0c45.556 0 82.493-36.9 82.553-82.442v-0.006zM968.894 504.523h-450.454v-339.926h-486.769v440.214c0 8.745-7.090 15.835-15.835 15.835s-15.835-7.090-15.835-15.835v0-607.010c0-8.745 7.090-15.835 15.835-15.835s15.835 7.090 15.835 15.835v0 135.126h960.66v-135.126c0-8.745 7.090-15.835 15.835-15.835s15.835 7.090 15.835 15.835v0 451.193c0.001 0.125 0.002 0.274 0.002 0.422 0 30.434-24.672 55.106-55.106 55.106-0.001 0-0.001 0-0.002 0v0zM550.11 164.597v308.256h418.784c0.001 0 0.002 0 0.004 0 12.943 0 23.436-10.493 23.436-23.436 0-0.148-0.001-0.297-0.004-0.444v0.022-284.398z" />
<glyph unicode="&#xe922;" glyph-name="bin" horiz-adv-x="816" d="M0 738.67l89.31-893.097c3.333-33.203 31.131-58.908 64.932-58.908 0.183 0 0.365 0.001 0.547 0.002h506.694c0.060 0 0.131 0 0.203 0 33.801 0 61.598 25.705 64.91 58.633l0.022 0.274 89.31 893.097c0.209 1.963 0.328 4.242 0.328 6.547 0 36.148-29.304 65.452-65.452 65.452-0.19 0-0.379-0.001-0.569-0.002h-684.784c-0.097 0.001-0.213 0.001-0.328 0.001-36.148 0-65.452-29.304-65.452-65.452 0-2.305 0.119-4.583 0.352-6.827l-0.024 0.281zM694.631-151.26c-1.774-17.146-16.145-30.403-33.612-30.403-0.022 0-0.045 0-0.067 0h-506.19c-0.019 0-0.041 0-0.064 0-17.467 0-31.838 13.257-33.6 30.258l-0.012 0.145-60.701 607.749h694.948zM40.432 767.912c6.098 6.816 14.92 11.086 24.74 11.086 0.098 0 0.197 0 0.295-0.001h684.798c0.054 0 0.117 0 0.181 0 18.599 0 33.676-15.077 33.676-33.676 0-1.227-0.066-2.439-0.194-3.632l0.013 0.148-25.442-253.361h-701.282l-25.547 253.361c-0.105 0.996-0.165 2.151-0.165 3.32 0 8.798 3.395 16.803 8.946 22.776l-0.019-0.021zM519.601 301.412c-8.721-0.059-15.776-7.114-15.835-15.829v-303.089c0-8.745 7.090-15.835 15.835-15.835s15.835 7.090 15.835 15.835v0 303.083c0 8.745-7.090 15.835-15.835 15.835v0zM297.171 307.323c-8.745 0-15.835-7.090-15.835-15.835v0-314.801c0-8.745 7.090-15.835 15.835-15.835s15.835 7.090 15.835 15.835v0 314.801c0 8.745-7.090 15.835-15.835 15.835v0z" />
<glyph unicode="&#xe923;" glyph-name="book" horiz-adv-x="826" d="M825.534 140.633c0.134 0.698 0.211 1.501 0.211 2.322s-0.077 1.624-0.224 2.403l0.013-0.080v638.997c0 14.576-11.816 26.392-26.392 26.392v0h-772.751c-14.576 0-26.392-11.816-26.392-26.392v0-803.048c0-2.217 0-4.434 0-6.651 0-0.633 0-1.161 0-1.795 0.060-102.801 83.411-186.115 186.22-186.115h623.69c8.745 0 15.835 7.090 15.835 15.835v0c-0.017 1.744-0.325 3.411-0.878 4.962l0.033-0.106c0.403 1.666 0.633 3.579 0.633 5.546 0 0.017 0 0.034 0 0.051v-0.003zM193.082-181.663c-87.050 0.74-157.767 69.65-161.401 155.909l-0.011 0.33c1.072 84.476 69.804 152.544 154.433 152.544 0.041 0 0.082 0 0.124 0h607.637v-308.784zM31.67 778.997h762.194v-620.206h-607.644c-64.18-0.062-120.743-32.62-154.13-82.104l-0.42-0.66zM299.916 580.531h225.702c8.745 0 15.835 7.090 15.835 15.835s-7.090 15.835-15.835 15.835v0h-225.702c-8.745 0-15.835-7.090-15.835-15.835s7.090-15.835 15.835-15.835v0z" />
<glyph unicode="&#xe924;" glyph-name="bookmark" horiz-adv-x="802" d="M37.265 810.667c-20.581 0-37.265-16.684-37.265-37.265v0-949.47c0.034-20.555 16.705-37.205 37.265-37.205 10.958 0 20.812 4.73 27.63 12.26l0.028 0.032 331.797 368.64c1.063 1.033 2.516 1.669 4.117 1.669s3.054-0.637 4.119-1.671l-0.001 0.001 331.797-368.64c6.847-7.561 16.7-12.291 27.659-12.291 20.56 0 37.231 16.65 37.265 37.202v949.473c0 20.581-16.684 37.265-37.265 37.265v0zM31.67 773.402c0 3.090 2.505 5.595 5.595 5.595v0h727.146c3.090 0 5.595-2.505 5.595-5.595v0-949.47c-0.052-3.050-2.537-5.502-5.594-5.502-1.627 0-3.092 0.695-4.114 1.803l-0.004 0.004-331.797 368.64c-6.832 7.591-16.69 12.343-27.659 12.343s-20.827-4.752-27.629-12.31l-0.030-0.034-331.797-368.64c-0.956-1.177-2.403-1.923-4.024-1.923-0.76 0-1.481 0.164-2.131 0.458l0.033-0.013c-2.106 0.725-3.592 2.69-3.592 5.002 0 0.060 0.001 0.12 0.003 0.18v-0.009z" />
<glyph unicode="&#xe925;" glyph-name="briefcase" d="M0 327.909v-491.626c0-14.576 11.816-26.392 26.392-26.392v0h971.216c14.576 0 26.392 11.816 26.392 26.392v0 723.134c0 14.576-11.816 26.392-26.392 26.392v0h-273.313v133.014c-0.060 36.124-29.328 65.392-65.446 65.452h-298.127c-35.988-0.239-65.076-29.439-65.135-65.446v-133.020h-269.196c-14.576 0-26.392-11.816-26.392-26.392v0-231.403zM31.67-158.438v462.489c140.587-59.293 304.028-93.747 475.517-93.747 0.987 0 1.974 0.001 2.961 0.003h-0.153c0.888-0.002 1.939-0.004 2.991-0.004 172.974 0 337.735 35.163 487.525 98.731l-8.18-3.084v-464.495zM327.258 718.824c0 0 0 0.001 0 0.001 0 18.546 14.944 33.601 33.448 33.78h298.138c18.657 0 33.781-15.124 33.781-33.781v0-133.014h-365.367zM992.33 554.139v-213.773c-141.349-62.193-306.135-98.392-479.375-98.392-1.041 0-2.082 0.001-3.122 0.004h0.162c-0.769-0.002-1.678-0.003-2.588-0.003-171.807 0-335.335 35.448-483.668 99.43l7.932-3.045v215.779z" />
<glyph unicode="&#xe926;" glyph-name="brightness-2" d="M1011.121 329.598l-109.473 109.473c-4.712 4.644-8.526 10.184-11.168 16.346l-0.127 0.334c-2.276 5.521-3.597 11.931-3.597 18.649 0 0.31 0.003 0.619 0.008 0.927l-0.001-0.046v154.022c0.001 0.094 0.001 0.206 0.001 0.318 0 24.196-19.615 43.81-43.81 43.81-0.112 0-0.223 0-0.335-0.001h-153.9c-14.28 0.018-27.179 5.915-36.409 15.401l-0.011 0.012-109.367 109.051c-7.923 7.9-18.857 12.784-30.931 12.784s-23.008-4.885-30.932-12.785l-109.472-109.472c-9.279-9.246-22.074-14.969-36.205-14.991h-154.026c-0.094 0.001-0.206 0.001-0.318 0.001-24.196 0-43.81-19.615-43.81-43.81 0-0.112 0-0.223 0.001-0.335v0.017-153.917c-0.018-14.28-5.915-27.179-15.401-36.409l-0.012-0.011-109.051-109.367c-7.875-7.935-12.741-18.865-12.741-30.931s4.866-22.996 12.744-30.934l109.47-109.364c4.712-4.644 8.526-10.184 11.168-16.346l0.127-0.334c2.341-5.573 3.701-12.050 3.701-18.845 0-0.278-0.002-0.555-0.007-0.832l0.001 0.042v-154.022c-0.001-0.094-0.001-0.206-0.001-0.318 0-24.196 19.615-43.81 43.81-43.81 0.112 0 0.223 0 0.335 0.001h153.9c7.148-0.099 13.919-1.603 20.085-4.248l-0.344 0.131c6.496-2.77 12.036-6.584 16.674-11.29l0.006-0.006 109.367-108.945c7.9-7.951 18.841-12.872 30.931-12.872s23.031 4.921 30.929 12.87l109.369 109.369c9.297 9.263 22.122 14.991 36.286 14.991 0.010 0 0.021 0 0.031 0h154.021c0.094-0.001 0.206-0.001 0.318-0.001 24.196 0 43.81 19.615 43.81 43.81 0 0.112 0 0.223-0.001 0.335v-0.017 154.022c0.185 14.165 6.001 26.936 15.306 36.208l0.002 0.002 109.051 109.473c7.925 7.912 12.828 18.849 12.828 30.931s-4.903 23.019-12.827 30.931l-0.001 0.001zM988.741 290.116l-109.262-109.262c-15.063-14.976-24.386-35.711-24.386-58.624 0-0.062 0-0.124 0-0.186v0.010-154.022c0.005-0.128 0.008-0.279 0.008-0.43 0-6.647-5.388-12.035-12.035-12.035-0.151 0-0.302 0.003-0.452 0.008l0.022-0.001h-154.128c-11.456-0.082-22.33-2.481-32.206-6.751l0.536 0.206c-10.457-4.413-19.37-10.55-26.8-18.143l-0.014-0.014-109.473-108.945c-2.182-2.203-5.207-3.566-8.551-3.566s-6.369 1.364-8.55 3.565l-109.368 109.263c-7.434 7.603-16.303 13.767-26.175 18.057l-0.533 0.206c-9.344 4.020-20.21 6.413-31.62 6.545h-154.389c-0.094-0.003-0.206-0.004-0.317-0.004-6.669 0-12.082 5.378-12.14 12.033v154.238c-0.054 22.918-9.498 43.619-24.687 58.469l-0.015 0.015-109.051 109.367c-2.136 2.215-3.459 5.226-3.484 8.546v0.005c0 0.024 0 0.053 0 0.082 0 3.303 1.331 6.295 3.485 8.47l109.366 109.366c15.063 14.976 24.386 35.711 24.386 58.624 0 0.025 0 0.050 0 0.075v-0.004 154.022c-0.001 0.063-0.002 0.138-0.002 0.213 0 6.763 5.483 12.246 12.246 12.246 0.075 0 0.15-0.001 0.224-0.002h154.117c0.008 0 0.017 0 0.026 0 11.431 0 22.308 2.369 32.168 6.642l-0.524-0.202c10.437 4.509 19.339 10.671 26.804 18.252l0.011 0.011 109.473 109.051c2.158 2.153 5.136 3.484 8.426 3.484 0.044 0 0.088 0 0.132-0.001h-0.007c3.327-0.013 6.341-1.339 8.554-3.487l109.259-109.364c7.452-7.596 16.362-13.731 26.281-17.956l0.533-0.202c9.334-4.136 20.221-6.545 31.67-6.545h154.339c0.094 0.003 0.205 0.004 0.317 0.004 6.705 0 12.14-5.435 12.14-12.14 0-0.001 0-0.003 0-0.004v0-154.022c0.132-22.97 9.554-43.715 24.695-58.688l0.008-0.008 108.945-109.367c2.203-2.182 3.566-5.207 3.566-8.551s-1.364-6.369-3.565-8.55l-0.001-0.001z" />
<glyph unicode="&#xe927;" glyph-name="brightness-3" d="M901.648 439.071c-4.712 4.644-8.526 10.184-11.168 16.346l-0.127 0.334c-2.276 5.521-3.597 11.931-3.597 18.649 0 0.31 0.003 0.619 0.008 0.927l-0.001-0.046v154.022c0.001 0.094 0.001 0.206 0.001 0.318 0 24.196-19.615 43.81-43.81 43.81-0.112 0-0.223 0-0.335-0.001h-153.9c-14.28 0.018-27.179 5.915-36.409 15.401l-0.011 0.012-109.367 109.051c-7.923 7.9-18.857 12.784-30.931 12.784s-23.008-4.885-30.932-12.785l-109.472-109.472c-9.279-9.246-22.074-14.969-36.205-14.991h-154.026c-0.094 0.001-0.206 0.001-0.318 0.001-24.196 0-43.81-19.615-43.81-43.81 0-0.112 0-0.223 0.001-0.335v0.017-153.917c-0.018-14.28-5.915-27.179-15.401-36.409l-0.012-0.011-109.051-109.367c-7.875-7.935-12.741-18.865-12.741-30.931s4.866-22.996 12.744-30.934l109.47-109.364c4.712-4.644 8.526-10.184 11.168-16.346l0.127-0.334c2.341-5.573 3.701-12.050 3.701-18.845 0-0.278-0.002-0.555-0.007-0.832l0.001 0.042v-154.022c-0.001-0.094-0.001-0.206-0.001-0.318 0-24.196 19.615-43.81 43.81-43.81 0.112 0 0.223 0 0.335 0.001h153.9c7.148-0.099 13.919-1.603 20.085-4.248l-0.344 0.131c6.496-2.77 12.036-6.584 16.674-11.29l0.006-0.006 109.367-108.945c7.9-7.951 18.841-12.872 30.931-12.872s23.031 4.921 30.929 12.87l109.369 109.369c9.297 9.263 22.122 14.991 36.286 14.991 0.010 0 0.021 0 0.031 0h154.021c0.094-0.001 0.206-0.001 0.318-0.001 24.196 0 43.81 19.615 43.81 43.81 0 0.112 0 0.223-0.001 0.335v-0.017 154.022c0.185 14.165 6.001 26.936 15.306 36.208l0.002 0.002 109.051 109.473c7.925 7.912 12.828 18.849 12.828 30.931s-4.903 23.019-12.827 30.931l-0.001 0.001zM988.741 290.116l-109.262-109.262c-15.063-14.976-24.386-35.711-24.386-58.624 0-0.062 0-0.124 0-0.186v0.010-154.022c0.005-0.128 0.008-0.279 0.008-0.43 0-6.647-5.388-12.035-12.035-12.035-0.151 0-0.302 0.003-0.452 0.008l0.022-0.001h-154.128c-11.456-0.082-22.33-2.481-32.206-6.751l0.536 0.206c-10.457-4.413-19.37-10.55-26.8-18.143l-0.014-0.014-109.473-108.945c-2.182-2.203-5.207-3.566-8.551-3.566s-6.369 1.364-8.55 3.565l-109.368 109.263c-7.434 7.603-16.303 13.767-26.175 18.057l-0.533 0.206c-9.344 4.020-20.21 6.413-31.62 6.545h-154.389c-0.094-0.003-0.206-0.004-0.317-0.004-6.669 0-12.082 5.378-12.14 12.033v154.238c-0.054 22.918-9.498 43.619-24.687 58.469l-0.015 0.015-109.051 109.367c-2.136 2.215-3.459 5.226-3.484 8.546v0.005c0 0.024 0 0.053 0 0.082 0 3.303 1.331 6.295 3.485 8.47l109.366 109.366c15.063 14.976 24.386 35.711 24.386 58.624 0 0.025 0 0.050 0 0.075v-0.004 154.022c-0.001 0.063-0.002 0.138-0.002 0.213 0 6.763 5.483 12.246 12.246 12.246 0.075 0 0.15-0.001 0.224-0.002h154.117c0.008 0 0.017 0 0.026 0 11.431 0 22.308 2.369 32.168 6.642l-0.524-0.202c10.437 4.509 19.339 10.671 26.804 18.252l0.011 0.011 109.473 109.051c2.158 2.153 5.136 3.484 8.426 3.484 0.044 0 0.088 0 0.132-0.001h-0.007c3.327-0.013 6.341-1.339 8.554-3.487l109.259-109.364c7.452-7.596 16.362-13.731 26.281-17.956l0.533-0.202c9.334-4.136 20.221-6.545 31.67-6.545h154.339c0.094 0.003 0.205 0.004 0.317 0.004 6.705 0 12.14-5.435 12.14-12.14 0-0.001 0-0.003 0-0.004v0-154.022c0.132-22.97 9.554-43.715 24.695-58.688l0.008-0.008 108.945-109.367c2.203-2.182 3.566-5.207 3.566-8.551s-1.364-6.369-3.565-8.55l-0.001-0.001zM512 438.543c-77.252 0-139.876-62.625-139.876-139.876s62.625-139.876 139.876-139.876c77.252 0 139.876 62.625 139.876 139.876v0c-0.060 77.227-62.649 139.816-139.87 139.876h-0.006zM512 190.461c-59.761 0-108.206 48.446-108.206 108.206s48.446 108.206 108.206 108.206c59.761 0 108.206-48.446 108.206-108.206v0c-0.060-59.736-48.47-108.146-108.2-108.206h-0.006z" />
<glyph unicode="&#xe928;" glyph-name="brightness" d="M1011.121 267.736c7.925 7.912 12.828 18.849 12.828 30.931s-4.903 23.019-12.827 30.931l-109.474 109.474c-4.712 4.644-8.526 10.184-11.168 16.346l-0.127 0.334c-2.276 5.521-3.597 11.931-3.597 18.649 0 0.31 0.003 0.619 0.008 0.927l-0.001-0.046v154.022c0.001 0.094 0.001 0.206 0.001 0.318 0 24.196-19.615 43.81-43.81 43.81-0.112 0-0.223 0-0.335-0.001h-153.9c-14.28 0.018-27.179 5.915-36.409 15.401l-0.011 0.012-109.367 109.051c-7.923 7.9-18.857 12.784-30.931 12.784s-23.008-4.885-30.932-12.785l-109.472-109.472c-9.279-9.246-22.074-14.969-36.205-14.991h-154.026c-0.094 0.001-0.206 0.001-0.318 0.001-24.196 0-43.81-19.615-43.81-43.81 0-0.112 0-0.223 0.001-0.335v0.017-153.917c-0.018-14.28-5.915-27.179-15.401-36.409l-0.012-0.011-109.051-109.367c-7.875-7.935-12.741-18.865-12.741-30.931s4.866-22.996 12.744-30.934l109.47-109.364c4.712-4.644 8.526-10.184 11.168-16.346l0.127-0.334c2.341-5.573 3.701-12.050 3.701-18.845 0-0.278-0.002-0.555-0.007-0.832l0.001 0.042v-154.022c-0.001-0.094-0.001-0.206-0.001-0.318 0-24.196 19.615-43.81 43.81-43.81 0.112 0 0.223 0 0.335 0.001h153.9c7.148-0.099 13.919-1.603 20.085-4.248l-0.344 0.131c6.496-2.77 12.036-6.584 16.674-11.29l0.006-0.006 109.367-108.945c7.9-7.951 18.841-12.872 30.931-12.872s23.031 4.921 30.929 12.87l109.369 109.369c9.297 9.263 22.122 14.991 36.286 14.991 0.010 0 0.021 0 0.031 0h154.021c0.094-0.001 0.206-0.001 0.318-0.001 24.196 0 43.81 19.615 43.81 43.81 0 0.112 0 0.223-0.001 0.335v-0.017 154.022c0.185 14.165 6.001 26.936 15.306 36.208l0.002 0.002zM879.479 180.854c-15.063-14.976-24.386-35.711-24.386-58.624 0-0.062 0-0.124 0-0.186v0.010-154.022c0.005-0.128 0.008-0.279 0.008-0.43 0-6.647-5.388-12.035-12.035-12.035-0.151 0-0.302 0.003-0.452 0.008l0.022-0.001h-154.128c-11.456-0.082-22.33-2.481-32.206-6.751l0.536 0.206c-10.457-4.413-19.37-10.55-26.8-18.143l-0.014-0.014-109.473-108.945c-2.182-2.203-5.207-3.566-8.551-3.566s-6.369 1.364-8.55 3.565l-109.368 109.263c-7.434 7.603-16.303 13.767-26.175 18.057l-0.533 0.206c-9.344 4.020-20.21 6.413-31.62 6.545h-154.389c-0.094-0.003-0.206-0.004-0.317-0.004-6.669 0-12.082 5.378-12.14 12.033v154.238c-0.054 22.918-9.498 43.619-24.687 58.469l-0.015 0.015-109.051 109.367c-2.136 2.215-3.459 5.226-3.484 8.546v0.005c0 0.024 0 0.053 0 0.082 0 3.303 1.331 6.295 3.485 8.47l109.366 109.366c15.063 14.976 24.386 35.711 24.386 58.624 0 0.025 0 0.050 0 0.075v-0.004 154.022c-0.001 0.063-0.002 0.138-0.002 0.213 0 6.763 5.483 12.246 12.246 12.246 0.075 0 0.15-0.001 0.224-0.002h154.117c0.008 0 0.017 0 0.026 0 11.431 0 22.308 2.369 32.168 6.642l-0.524-0.202c10.437 4.509 19.339 10.671 26.804 18.252l0.011 0.011 109.473 109.051c2.158 2.153 5.136 3.484 8.426 3.484 0.044 0 0.088 0 0.132-0.001h-0.007c3.327-0.013 6.341-1.339 8.554-3.487l109.259-109.364c7.452-7.596 16.362-13.731 26.281-17.956l0.533-0.202c9.334-4.136 20.221-6.545 31.67-6.545h154.339c0.094 0.003 0.205 0.004 0.317 0.004 6.705 0 12.14-5.435 12.14-12.14 0-0.001 0-0.003 0-0.004v0-154.022c0.132-22.97 9.554-43.715 24.695-58.688l0.008-0.008 108.945-109.367c2.203-2.182 3.566-5.207 3.566-8.551s-1.364-6.369-3.565-8.55l-0.001-0.001zM512 438.543c-8.745 0-15.835-7.090-15.835-15.835s7.090-15.835 15.835-15.835v0c59.761 0 108.206-48.446 108.206-108.206s-48.446-108.206-108.206-108.206v0c-8.745 0-15.835-7.090-15.835-15.835s7.090-15.835 15.835-15.835v0c77.252 0 139.876 62.625 139.876 139.876s-62.625 139.876-139.876 139.876v0z" />
<glyph unicode="&#xe929;" glyph-name="bulb" horiz-adv-x="791" d="M6.228 486.048c-3.872-21.213-6.134-45.674-6.228-70.646v-0.084c0-0.087 0-0.189 0-0.291 0-135.511 68.324-255.064 172.403-326.090l1.361-0.877c47.737-31.734 78.939-85.047 79.597-145.689l0.001-0.099v-108.206c0.059-26.043 21.065-47.161 47.060-47.399h190.044c0 0 0 0 0 0 26.199 0 47.445 21.209 47.505 47.394v108.212c0.73 60.84 31.947 114.234 79.057 145.698l0.646 0.406c104.928 72.149 172.847 191.539 172.847 326.793 0 218.345-177.004 395.348-395.348 395.348-193.289 0-354.181-138.711-388.561-322.019l-0.382-2.451zM490.148-181.663h-190.021c-8.391 0.404-15.047 7.282-15.096 15.725v106.311h221.691v-106.306c-0.050-8.707-7.12-15.747-15.835-15.747-0.26 0-0.519 0.006-0.775 0.019l0.036-0.001zM755.965 462.296c1.978-14.247 3.108-30.709 3.108-47.434 0-124.639-62.718-234.629-158.316-300.133l-1.242-0.804c-47.912-32.35-81.505-82.784-91.046-141.298l-0.164-1.218h-96.594v211.134c0 8.745-7.090 15.835-15.835 15.835s-15.835-7.090-15.835-15.835v0-211.134h-97.122c-9.64 59.803-43.343 110.282-90.665 142.038l-0.756 0.478c-96.99 66.22-159.829 176.248-159.829 300.952 0 0.155 0 0.311 0 0.466v-0.025c0.066 23.059 2.137 45.588 6.048 67.48l-0.347-2.345c31.454 170.83 179.226 298.545 356.828 298.545 0.404 0 0.808-0.001 1.212-0.002h-0.062c10.557 0 21.852 0 32.937-1.478 169.99-15.965 305.086-146.801 327.475-313.354l0.205-1.869z" />
<glyph unicode="&#xe92a;" glyph-name="calander-2" d="M26.392-116.422h888.241l82.342-82.448c2.868-2.855 6.823-4.62 11.19-4.62 8.761 0 15.863 7.102 15.863 15.863 0 4.393-1.786 8.37-4.672 11.242l-59.963 59.963h17.735c14.576 0 26.392 11.816 26.392 26.392v0 756.388c0 14.576-11.816 26.392-26.392 26.392v0h-826.906l-102.717 102.717c-2.82 2.633-6.619 4.25-10.795 4.25-8.745 0-15.835-7.090-15.835-15.835 0-4.176 1.617-7.975 4.258-10.804l-0.009 0.009 80.442-80.336h-79.175c-14.576 0-26.392-11.816-26.392-26.392v0-756.388c0-14.576 11.816-26.392 26.392-26.392v0zM31.67-84.752v490.464h360.828l490.464-490.464zM927.723-84.752l-490.464 490.464h534.591v-490.464zM971.85 661.079v-223.696h-566.261l-223.696 223.696zM137.237 661.079l223.591-223.696h-329.158v223.696z" />
<glyph unicode="&#xe92b;" glyph-name="calander-3" d="M997.608 679.553h-234.042v46.661c0 8.745-7.090 15.835-15.835 15.835s-15.835-7.090-15.835-15.835v0-46.661h-439.792v46.661c0 8.745-7.090 15.835-15.835 15.835s-15.835-7.090-15.835-15.835v0-46.661h-234.042c-14.576 0-26.392-11.816-26.392-26.392v0-772.751c0-14.576 11.816-26.392 26.392-26.392v0h971.216c14.576 0 26.392 11.816 26.392 26.392v0 772.751c0 14.576-11.816 26.392-26.392 26.392v0zM260.434 647.883v-43.071c0-8.745 7.090-15.835 15.835-15.835s15.835 7.090 15.835 15.835v0 43.071h439.792v-43.071c0-8.745 7.090-15.835 15.835-15.835s15.835 7.090 15.835 15.835v0 43.071h228.764v-189.387h-960.66v189.387zM31.67-114.311v541.136h960.66v-541.136z" />
<glyph unicode="&#xe92c;" glyph-name="calander" d="M26.392-145.981h971.216c14.576 0 26.392 11.816 26.392 26.392v0 772.751c0 14.576-11.816 26.392-26.392 26.392v0h-234.042v46.661c0 8.745-7.090 15.835-15.835 15.835s-15.835-7.090-15.835-15.835v0-46.661h-439.687v46.661c0 8.745-7.090 15.835-15.835 15.835s-15.835-7.090-15.835-15.835v0-46.661h-234.148c-14.576 0-26.392-11.816-26.392-26.392v0-772.751c0-14.576 11.816-26.392 26.392-26.392v0zM31.67-114.311v541.136h960.66v-541.136zM260.539 647.883v-43.071c0-8.745 7.090-15.835 15.835-15.835s15.835 7.090 15.835 15.835v0 43.071h439.687v-43.071c0-8.745 7.090-15.835 15.835-15.835s15.835 7.090 15.835 15.835v0 43.071h228.764v-189.387h-960.66v189.387zM234.675 215.375c22.854 0.001 41.381 18.528 41.381 41.382s-18.527 41.382-41.382 41.382c-22.855 0-41.382-18.527-41.382-41.382 0-0.111 0-0.223 0.001-0.334v0.017c0.179-22.718 18.638-41.066 41.381-41.066 0 0 0.001 0 0.001 0v0zM511.683 215.375c0.031 0 0.068 0 0.104 0 22.855 0 41.382 18.527 41.382 41.382s-18.527 41.382-41.382 41.382c-22.855 0-41.382-18.527-41.382-41.382 0-0.111 0-0.223 0.001-0.334v0.017c0.12-22.706 18.554-41.066 41.276-41.066 0 0 0 0 0.001 0v0zM788.691 215.375c0.031 0 0.068 0 0.104 0 22.855 0 41.382 18.527 41.382 41.382s-18.527 41.382-41.382 41.382c-22.855 0-41.382-18.527-41.382-41.382 0-0.111 0-0.223 0.001-0.334v0.017c0.12-22.706 18.554-41.066 41.276-41.066 0 0 0 0 0.001 0v0zM234.992 82.466c-22.855 0-41.382-18.527-41.382-41.382s18.527-41.382 41.382-41.382c22.855 0 41.382 18.527 41.382 41.382v0c0 22.855-18.527 41.382-41.382 41.382v0zM512 82.466c-22.855 0-41.382-18.527-41.382-41.382s18.527-41.382 41.382-41.382c22.855 0 41.382 18.527 41.382 41.382v0c0 22.855-18.527 41.382-41.382 41.382v0zM789.008 82.466c-22.855 0-41.382-18.527-41.382-41.382s18.527-41.382 41.382-41.382c22.855 0 41.382 18.527 41.382 41.382v0c0 0.031 0 0.069 0 0.106 0 22.796-18.48 41.277-41.277 41.277-0.037 0-0.074 0-0.111 0h0.006z" />
<glyph unicode="&#xe92d;" glyph-name="cart" d="M964.566 632.998h-714.9l-29.031 97.755c-2.017 6.588-8.044 11.296-15.17 11.296-0.011 0-0.022 0-0.033 0h-189.596c-8.745 0-15.835-7.090-15.835-15.835s7.090-15.835 15.835-15.835v0h177.88l28.714-96.699 41.488-403.266c-57.45-1.762-103.352-48.755-103.352-106.47 0-56.749 44.378-103.132 100.323-106.34l0.284-0.013c-3.475-10.221-5.48-21.995-5.48-34.237 0-60.577 49.107-109.684 109.684-109.684s109.684 49.107 109.684 109.684c0 0.494-0.003 0.988-0.010 1.481l0.001-0.075c-0.037 11.617-1.848 22.797-5.177 33.303l0.215-0.788h214.829c-3.144-9.708-4.991-20.882-5.067-32.477v-0.038c-0.034-1.014-0.053-2.205-0.053-3.401 0-60.519 49.060-109.579 109.579-109.579s109.579 49.060 109.579 109.579c0 1.196-0.019 2.387-0.057 3.574l0.004-0.173c-0.076 11.633-1.923 22.807-5.285 33.303l0.218-0.789h37.054c8.745 0 15.835 7.090 15.835 15.835s-7.090 15.835-15.835 15.835v0h-663.911c-41.395 0-74.953 33.557-74.953 74.953s33.557 74.953 74.953 74.953v0h628.44c28.534 0.060 52.351 20.183 58.097 47.009l0.070 0.391 69.146 335.386c0.784 3.618 1.233 7.774 1.233 12.035 0 32.766-26.562 59.329-59.329 59.329-0.025 0-0.051 0-0.076 0h0.004zM443.381-35.241c0-43.086-34.928-78.014-78.014-78.014s-78.014 34.928-78.014 78.014v0c0 0.038 0 0.084 0 0.129 0 11.756 2.647 22.894 7.377 32.85l-0.199-0.464h142.093c4.272-9.25 6.763-20.074 6.763-31.479 0-0.364-0.003-0.727-0.008-1.090l0.001 0.055zM866.811-35.241c0.034-0.855 0.053-1.859 0.053-2.867 0-43.028-34.881-77.908-77.908-77.908s-77.908 34.881-77.908 77.908c0 1.008 0.019 2.012 0.057 3.011l-0.004-0.144c0 0.038 0 0.084 0 0.129 0 11.756 2.647 22.894 7.377 32.85l-0.199-0.464h141.776c4.532-9.492 7.179-20.63 7.179-32.386 0-0.045 0-0.091 0-0.136v0.007zM992.33 568.074l-69.78-335.386c-2.686-12.722-13.804-22.137-27.127-22.169h-599.835l-40.327 390.598h709.305c8.559-0.201 16.131-4.26 21.069-10.499l0.044-0.058c4.306-4.924 6.932-11.412 6.932-18.513 0-1.402-0.102-2.779-0.3-4.126l0.018 0.153z" />
<glyph unicode="&#xe92e;" glyph-name="cast" d="M1010.742 713.656h-994.573c-8.93 0-16.168-7.239-16.168-16.168v0-107.789c0-8.93 7.239-16.168 16.168-16.168s16.168 7.239 16.168 16.168v0 91.621h962.237v-762.826h-306.014c-8.93 0-16.168-7.239-16.168-16.168s7.239-16.168 16.168-16.168v0h322.183c8.93 0 16.168 7.239 16.168 16.168v0 795.163c0 8.93-7.239 16.168-16.168 16.168v0zM132.473-32.031c0-29.765-24.129-53.895-53.895-53.895s-53.895 24.129-53.895 53.895c0 29.765 24.129 53.895 53.895 53.895s53.895-24.129 53.895-53.895zM78.579 194.65c0.22 0.001 0.48 0.001 0.741 0.001 62.377 0 118.835-25.339 159.644-66.286l0.006-0.006c40.952-40.782 66.292-97.212 66.292-159.561 0-0.292-0.001-0.584-0.002-0.876v0.045c0-8.93 7.239-16.168 16.168-16.168s16.168 7.239 16.168 16.168v0c0.002 0.4 0.004 0.873 0.004 1.346 0 71.055-28.839 135.375-75.452 181.892l-0.004 0.004c-46.603 46.619-110.994 75.455-182.119 75.455-0.395 0-0.79-0.001-1.184-0.003h0.061c-8.93 0-16.168-7.239-16.168-16.168s7.239-16.168 16.168-16.168v0zM78.579 356.873c0.25 0.001 0.546 0.001 0.842 0.001 107.124 0 204.076-43.554 274.114-113.919l0.015-0.015c70.378-69.987 113.935-166.882 113.935-273.951 0-0.359 0-0.718-0.001-1.076v0.056c0-8.93 7.239-16.168 16.168-16.168s16.168 7.239 16.168 16.168v0c0.001 0.335 0.002 0.73 0.002 1.126 0 115.963-47.184 220.906-123.401 296.676l-0.020 0.020c-75.84 76.238-180.825 123.42-296.83 123.42-0.349 0-0.697 0-1.046-0.001h0.054c-8.93 0-16.168-7.239-16.168-16.168s7.239-16.168 16.168-16.168v0z" />
<glyph unicode="&#xe92f;" glyph-name="center-align" d="M699.909 260.663c14.576 0 26.392 11.816 26.392 26.392v0 375.819c0 14.576-11.816 26.392-26.392 26.392v0h-375.819c-14.576 0-26.392-11.816-26.392-26.392v0-375.819c0-14.576 11.816-26.392 26.392-26.392v0zM329.369 657.595h365.262v-365.262h-365.262zM15.835 442.555h198.466c8.745 0 15.835 7.090 15.835 15.835s-7.090 15.835-15.835 15.835v0h-198.466c-8.745 0-15.835-7.090-15.835-15.835s7.090-15.835 15.835-15.835v0zM15.835 260.663h198.466c8.745 0 15.835 7.090 15.835 15.835s-7.090 15.835-15.835 15.835v0h-198.466c-8.745 0-15.835-7.090-15.835-15.835s7.090-15.835 15.835-15.835v0zM1008.165 474.225h-198.466c-8.745 0-15.835-7.090-15.835-15.835s7.090-15.835 15.835-15.835v0h198.466c8.745 0 15.835 7.090 15.835 15.835s-7.090 15.835-15.835 15.835v0zM1008.165 292.333h-198.466c-8.745 0-15.835-7.090-15.835-15.835s7.090-15.835 15.835-15.835v0h198.466c8.745 0 15.835 7.090 15.835 15.835s-7.090 15.835-15.835 15.835v0zM1024 102.84c0 8.745-7.090 15.835-15.835 15.835v0h-992.33c-8.745 0-15.835-7.090-15.835-15.835s7.090-15.835 15.835-15.835v0h992.33c8.745 0 15.835 7.090 15.835 15.835v0zM627.068-70.818c0 8.745-7.090 15.835-15.835 15.835v0h-595.398c-8.745 0-15.835-7.090-15.835-15.835s7.090-15.835 15.835-15.835v0h595.398c8.745 0 15.835 7.090 15.835 15.835v0z" />
<glyph unicode="&#xe930;" glyph-name="chart" d="M15.835 68.214c4.369 0.016 8.321 1.788 11.191 4.645l271.517 271.517c0.878 0.877 2.091 1.419 3.431 1.419s2.552-0.542 3.431-1.42v0l254.1-254.1c6.706-6.38 15.8-10.305 25.811-10.305s19.105 3.925 25.827 10.32l-0.016-0.015 408.228 408.333c2.633 2.82 4.25 6.619 4.25 10.795 0 8.745-7.090 15.835-15.835 15.835-4.176 0-7.975-1.617-10.804-4.258l-408.324-408.324c-0.899-0.83-2.106-1.338-3.431-1.338s-2.531 0.509-3.434 1.341l-253.991 254.097c-6.608 6.6-15.733 10.682-25.811 10.682s-19.203-4.082-25.812-10.682v0l-271.518-271.518c-2.887-2.853-4.675-6.813-4.675-11.19s1.788-8.337 4.674-11.189l0.002-0.002c2.869-2.857 6.821-4.629 11.187-4.645h0.003z" />
<glyph unicode="&#xe931;" glyph-name="chat-bubble" d="M512 810.667c-282.733-0.049-511.914-229.261-511.914-512 0-282.77 229.23-512 512-512 103.447 0 199.729 30.679 280.243 83.435l-1.949-1.199c8.023 5.173 46.238-5.701 67.035-11.507 42.966-12.246 80.020-22.802 99.339-3.484s5.806 52.784-8.129 93.427c-4.645 13.301-18.58 53.839-15.202 60.384 56.704 81.256 90.601 182.088 90.601 290.837 0 282.8-229.232 512.060-512.021 512.106h-0.004zM907.876 25.776v0c-12.879-18.58-1.689-51.094 11.296-88.887 4.645-13.407 18.685-54.156 15.729-60.595-6.123-6.228-51.306 6.651-68.302 11.507-39.060 10.557-72.736 21.113-92.899 7.601-73.779-48.465-164.214-77.307-261.384-77.307-265.395 0-480.541 215.146-480.541 480.541s215.146 480.541 480.541 480.541c265.395 0 480.541-215.146 480.541-480.541 0-102.024-31.794-196.622-86.016-274.427l1.034 1.568z" />
<glyph unicode="&#xe932;" glyph-name="chevron-down" d="M473.785 66.42v0c9.944-8.973 23.182-14.463 37.702-14.463 0.069 0 0.138 0 0.207 0h-0.011c0.165-0.002 0.36-0.003 0.555-0.003 14.676 0 28.071 5.485 38.247 14.517l-0.059-0.052 468.612 447.815c2.887 2.853 4.675 6.813 4.675 11.19s-1.788 8.337-4.674 11.189l-0.002 0.002c-2.878 2.846-6.837 4.604-11.206 4.604-4.099 0-7.836-1.547-10.66-4.089l0.014 0.013-468.295-446.971c-4.422-3.961-10.294-6.382-16.732-6.382s-12.31 2.421-16.756 6.403l0.024-0.021-468.718 446.971c-2.855 2.657-6.697 4.288-10.919 4.288-4.488 0-8.546-1.843-11.459-4.813l-0.003-0.003c-2.682-2.846-4.33-6.692-4.33-10.922 0-4.495 1.861-8.556 4.854-11.454l0.004-0.004z" />
<glyph unicode="&#xe933;" glyph-name="chevron-left" horiz-adv-x="489" d="M462.172-208.371c2.855-3.052 6.905-4.956 11.4-4.962h0.001c4.115 0.107 7.821 1.778 10.561 4.438l-0.004-0.004c3.304 2.934 5.376 7.194 5.376 11.937 0 4.004-1.476 7.663-3.914 10.463l0.016-0.019-447.499 468.295c-3.961 4.422-6.382 10.294-6.382 16.732s2.421 12.31 6.403 16.756l-0.021-0.024 447.499 468.718c2.666 2.854 4.304 6.699 4.304 10.926 0 8.848-7.173 16.022-16.022 16.022-4.621 0-8.785-1.956-11.709-5.086l-0.009-0.009-447.71-469.14c-9.080-10.086-14.633-23.502-14.633-38.215s5.554-28.13 14.679-38.267l-0.046 0.052z" />
<glyph unicode="&#xe934;" glyph-name="chevron-right" horiz-adv-x="489" d="M451.299 315.558c3.961-4.422 6.382-10.294 6.382-16.732s-2.421-12.31-6.403-16.756l0.021 0.024-446.971-468.612c-2.682-2.846-4.33-6.692-4.33-10.922 0-4.495 1.861-8.556 4.854-11.454l0.004-0.004c2.736-2.656 6.441-4.327 10.536-4.433h0.020c4.496 0.006 8.546 1.909 11.393 4.953l0.008 0.009 448.238 469.034c9.080 10.086 14.633 23.502 14.633 38.215s-5.554 28.13-14.679 38.267l0.046-0.052-447.815 468.718c-2.863 2.848-6.809 4.608-11.167 4.608-8.745 0-15.835-7.090-15.835-15.835 0-4.095 1.555-7.827 4.106-10.639l-0.012 0.013z" />
<glyph unicode="&#xe935;" glyph-name="chevron-up" d="M26.708 55.863l468.401 447.499c4.422 3.961 10.294 6.382 16.732 6.382s12.31-2.421 16.756-6.403l-0.024 0.021 468.612-447.499c2.768-2.585 6.462-4.21 10.533-4.328l0.023-0.001c0.037 0 0.081-0.001 0.125-0.001 4.438 0 8.441 1.863 11.269 4.849l0.007 0.007c2.887 2.853 4.675 6.813 4.675 11.19s-1.788 8.337-4.674 11.189l-0.002 0.002-469.14 448.238c-10.086 9.080-23.502 14.633-38.215 14.633s-28.13-5.554-38.267-14.679l0.052 0.046-468.718-447.71c-3.139-2.933-5.095-7.097-5.095-11.718 0-8.848 7.173-16.022 16.022-16.022 4.227 0 8.072 1.637 10.935 4.312l-0.009-0.009z" />
<glyph unicode="&#xe936;" glyph-name="circles" d="M677.424 647.038c-0.035 0-0.076 0-0.118 0-60.617 0-117.58-15.648-167.068-43.125l1.762 0.898c-47.836 26.515-104.894 42.121-165.597 42.121-191.409 0-346.576-155.168-346.576-346.576s155.168-346.576 346.576-346.576c0.061 0 0.122 0 0.182 0h-0.009c0.035 0 0.076 0 0.118 0 60.617 0 117.58 15.648 167.068 43.125l-1.762-0.898c47.836-26.515 104.894-42.121 165.597-42.121 191.409 0 346.576 155.168 346.576 346.576s-155.168 346.576-346.576 346.576c-0.061 0-0.122 0-0.182 0h0.009zM346.576-14.55c-0.146 0-0.318 0-0.491 0-173.976 0-315.012 141.036-315.012 315.012s141.036 315.012 315.012 315.012c48.8 0 95.009-11.097 136.24-30.905l-1.89 0.818c-90.952-63.28-149.736-167.29-149.736-285.031s58.784-221.751 148.604-284.285l1.132-0.746c-39.042-18.856-84.902-29.876-133.336-29.876-0.184 0-0.367 0-0.551 0h0.028zM512 568.285c90.33-56.363 149.543-155.205 149.543-267.876s-59.213-211.514-148.218-267.105l-1.325-0.771c-90.33 56.363-149.543 155.205-149.543 267.876s59.213 211.514 148.218 267.105l1.325 0.771zM677.424-14.55c-0.117 0-0.256 0-0.394 0-48.489 0-94.394 11.059-135.332 30.793l1.867-0.811c90.952 63.28 149.736 167.29 149.736 285.031s-58.784 221.751-148.604 284.285l-1.132 0.746c39.012 18.856 84.84 29.876 133.242 29.876 0.217 0 0.434 0 0.651-0.001h-0.034c171.478-3.239 309.245-143.010 309.245-314.959s-137.767-311.72-308.943-314.955l-0.303-0.005z" />
<glyph unicode="&#xe937;" glyph-name="clipboard" horiz-adv-x="828" d="M600.36 810.667h-372.968c-0.126 0.002-0.274 0.003-0.422 0.003-14.576 0-26.392-11.816-26.392-26.392 0-0.001 0-0.002 0-0.004v0-70.519h-163.523c-20.464 0-37.054-16.59-37.054-37.054v-852.981c0-20.464 16.59-37.054 37.054-37.054v0h753.643c0 0 0 0 0 0 20.486 0 37.099 16.577 37.159 37.048v852.987c-0.060 20.477-16.674 37.054-37.159 37.054 0 0 0 0 0 0h-163.946v70.519c0 14.576-11.816 26.392-26.392 26.392v0zM232.247 778.997h362.834v-161.94h-362.834zM790.697 682.086c0.031 0.001 0.068 0.001 0.106 0.001 2.973 0 5.384-2.41 5.384-5.384 0 0 0-0.001 0-0.001v0-852.981c0 0 0-0.001 0-0.001 0-2.973-2.41-5.384-5.384-5.384-0.037 0-0.074 0-0.111 0.001h-753.637c-0.032-0.001-0.069-0.001-0.107-0.001-2.915 0-5.278 2.363-5.278 5.278 0 0.037 0 0.075 0.001 0.112v-0.006 852.981c-0.001 0.032-0.001 0.069-0.001 0.107 0 2.915 2.363 5.278 5.278 5.278 0.037 0 0.075 0 0.112-0.001h163.517v-70.308c0-14.576 11.816-26.392 26.392-26.392v0h373.391c14.576 0 26.392 11.816 26.392 26.392v0 70.308z" />
<glyph unicode="&#xe938;" glyph-name="clock" d="M1024 643.027c0 0.035 0 0.076 0 0.117 0 77.951-63.192 141.143-141.143 141.143-63.538 0-117.269-41.983-134.968-99.722l-0.264-1c-67.471 40.169-148.775 63.913-235.626 63.913s-168.155-23.745-237.776-65.096l2.151 1.183c-17.663 58.692-71.223 100.712-134.598 100.712-0.186 0-0.371 0-0.557-0.001h0.029c-0.088 0-0.192 0-0.296 0-36.969 0-70.557-14.473-95.409-38.062l0.061 0.057c-28.048-25.774-45.562-62.629-45.562-103.576 0-64.556 43.535-118.943 102.848-135.405l0.988-0.234c-37.123-65.383-59.003-143.625-59.003-226.977 0-123.030 47.669-234.925 125.545-318.225l-0.246 0.266-99.127-99.127c-2.806-2.84-4.54-6.745-4.54-11.055 0-0.048 0-0.095 0.001-0.142v0.007c0-0.015 0-0.032 0-0.049 0-4.337 1.732-8.27 4.542-11.144l-0.003 0.003c2.935-2.748 6.892-4.435 11.243-4.435s8.308 1.687 11.252 4.443l-0.009-0.009 99.022 99.127c83.214-78.515 195.717-126.774 319.491-126.774 123.069 0 234.995 47.71 318.29 125.644l-0.262-0.243 97.649-97.649c2.898-2.788 6.844-4.504 11.19-4.504s8.292 1.717 11.195 4.509l-0.005-0.005c2.868 2.802 4.646 6.707 4.646 11.028 0 0.057 0 0.114-0.001 0.17v-0.009c0 0.035 0 0.076 0 0.118 0 4.335-1.777 8.255-4.643 11.070l-0.002 0.002-97.544 97.755c78.527 83.157 126.798 195.616 126.798 319.349 0 83.397-21.928 161.672-60.334 229.374l1.205-2.308c60.235 16.48 103.774 70.724 103.774 135.137 0 0.219-0.001 0.437-0.002 0.656v-0.034zM141.249 752.605c0.074 0 0.162 0 0.249 0 52.416 0 96.194-36.98 106.669-86.274l0.127-0.713c-50.519-35.151-92.69-78.398-125.59-128.297l-1.091-1.761c-51.389 9.41-89.823 53.843-89.823 107.254 0 31.709 13.547 60.254 35.168 80.163l0.077 0.070c19.263 18.302 45.371 29.559 74.108 29.559 0.037 0 0.074 0 0.112 0h-0.006zM947.675 280.193c0-0.222 0.001-0.486 0.001-0.749 0-240.967-195.342-436.308-436.308-436.308s-436.308 195.342-436.308 436.308c0 240.967 195.342 436.308 436.308 436.308 88.975 0 171.73-26.633 240.727-72.362l-1.618 1.008c119.305-78.963 196.972-212.49 197.199-364.172v-0.034zM882.751 752.605c60.398-0.298 109.28-49.18 109.578-109.55v-0.029c0.001-0.143 0.001-0.313 0.001-0.482 0-53.186-38.186-97.453-88.638-106.881l-0.673-0.104c-34.134 51.726-76.479 95.013-125.658 129.146l-1.55 1.018c10.556 49.941 54.265 86.882 106.602 86.882 0.119 0 0.237 0 0.356-0.001h-0.018zM527.835 285.26v324.935c0 8.745-7.090 15.835-15.835 15.835s-15.835-7.090-15.835-15.835v0-323.88c-0.881-1.888-1.394-4.098-1.394-6.429 0-4.293 1.743-8.179 4.561-10.989v0l177.141-176.93c2.82-2.633 6.619-4.25 10.795-4.25 8.745 0 15.835 7.090 15.835 15.835 0 4.176-1.617 7.975-4.258 10.804l0.009-0.009z" />
<glyph unicode="&#xe939;" glyph-name="close-circle" d="M792.597 579.264c-2.876 2.836-6.829 4.588-11.19 4.588s-8.314-1.752-11.192-4.59l-258.215-258.215-258.639 258.217c-2.467 1.664-5.508 2.657-8.78 2.657-8.745 0-15.835-7.090-15.835-15.835 0-3.272 0.992-6.312 2.693-8.836l-0.036 0.056 258.217-258.639-258.217-258.639c-2.836-2.876-4.588-6.829-4.588-11.19s1.752-8.314 4.59-11.192l-0.002 0.002c2.898-2.788 6.844-4.504 11.19-4.504s8.292 1.717 11.195 4.509l-0.005-0.005 258.217 258.639 258.639-258.217c2.863-2.867 6.819-4.641 11.189-4.645h0.001c8.384 0.45 15.012 7.358 15.012 15.814 0 4.173-1.615 7.97-4.253 10.799l0.009-0.009-258.217 258.639 258.217 258.639c2.714 2.853 4.384 6.721 4.384 10.979s-1.67 8.126-4.39 10.986l0.006-0.007zM512 810.667c-282.77 0-512-229.23-512-512s229.23-512 512-512c282.77 0 512 229.23 512 512v0c-0.36 282.625-229.376 511.64-511.966 512h-0.034zM512-181.663c-265.279 0-480.33 215.051-480.33 480.33s215.051 480.33 480.33 480.33c265.279 0 480.33-215.051 480.33-480.33v0c-0.3-265.158-215.172-480.030-480.302-480.33h-0.028z" />
<glyph unicode="&#xe93a;" glyph-name="cloud-2" d="M844.536 450.895c-1.205 0.387-2.174 1.219-2.733 2.297l-0.012 0.026c-59.285 124.813-184.316 209.566-329.142 209.566-179.297 0-328.254-129.9-357.894-300.721l-0.311-2.166c-0.357-1.954-1.795-3.498-3.659-4.003l-0.036-0.008c-88.068-27.839-150.795-108.815-150.795-204.442 0-8.981 0.553-17.833 1.628-26.524l-0.105 1.040c11.507-96.488 82.976-170.385 182.842-188.543 2.158-0.401 4.641-0.632 7.177-0.633h569.219c0.136 0 0.297 0 0.458 0 145.758 0 263.918 118.16 263.918 263.918 0 115.702-74.455 214.015-178.066 249.639l-1.856 0.555zM912.31 25.248c-40.372-35.161-93.46-56.646-151.563-56.795h-570.727c-85.615 15.624-147.266 78.859-157.084 161.306-0.782 6.342-1.228 13.682-1.228 21.128 0 81.459 53.424 150.44 127.145 173.818l1.291 0.353c13.234 4.136 23.119 15.183 25.515 28.81l0.032 0.221c24.279 142.542 136.891 252.901 278.598 273.522l1.788 0.214c14.016 2.143 30.192 3.371 46.653 3.378h0.008c59.373-0.217 115.049-15.848 163.295-43.095l-1.672 0.868c60.656-34.412 108.369-85.555 137.645-147.158l0.859-2.009c4.213-8.89 11.698-15.653 20.861-18.82l0.253-0.076c92.535-31.992 157.804-118.371 157.804-219.993 0-11.773-0.876-23.341-2.566-34.642l0.157 1.275c-8.393-57.087-36.389-106.469-76.808-142.083l-0.256-0.221z" />
<glyph unicode="&#xe93b;" glyph-name="cloud-confirm" d="M844.645 505.536c-1.243 0.425-2.232 1.313-2.78 2.454l-0.012 0.029c-59.284 124.818-184.319 209.575-329.149 209.575-179.219 0-328.124-129.784-357.859-300.494l-0.313-2.171c-0.323-2.124-1.873-3.814-3.894-4.336l-0.037-0.008c-87.952-27.721-150.615-108.553-150.615-204.020 0-9.097 0.569-18.062 1.673-26.859l-0.107 1.049c12.805-96.576 86.899-172.636 181.389-188.283l1.276-0.174c2.097-0.395 4.51-0.621 6.976-0.621 0.020 0 0.041 0 0.061 0h-0.003c8.569 0 15.515 6.946 15.515 15.515s-6.946 15.515-15.515 15.515v0h-1.552c-86.264 15.619-147.601 79.024-157.427 161.668-0.819 6.506-1.287 14.034-1.287 21.671 0 81.744 53.574 150.976 127.525 174.498l1.296 0.356c13.147 4.046 22.972 15.010 25.311 28.539l0.031 0.216c24.619 142.484 137.298 252.711 279.030 273.369l1.794 0.215c14.261 2.177 30.714 3.42 47.458 3.42 132.281 0 246.438-77.599 299.433-189.76l0.856-2.014c4.085-8.821 11.424-15.555 20.439-18.748l0.248-0.077c92.733-32.092 158.134-118.67 158.134-220.523 0-128.328-103.82-232.408-232.049-232.829h-0.040c-8.569 0-15.515-6.946-15.515-15.515s6.946-15.515 15.515-15.515v0c145.464 0.347 263.252 118.348 263.252 263.86 0 115.524-74.241 213.708-177.616 249.444l-1.854 0.557zM693.010 165.547l-245.036-244.415-116.984 116.467c-2.818 2.779-6.691 4.495-10.964 4.495s-8.146-1.716-10.966-4.497l0.002 0.002c-2.829-2.795-4.581-6.675-4.581-10.964s1.752-8.169 4.579-10.963l0.002-0.001 127.948-127.638c2.824-2.81 6.717-4.546 11.016-4.546s8.192 1.737 11.016 4.547l255.482 255.585c2.829 2.795 4.581 6.675 4.581 10.964s-1.752 8.169-4.579 10.963l-0.002 0.001c-2.795 2.659-6.585 4.295-10.757 4.295s-7.962-1.636-10.764-4.301l0.007 0.006z" />
<glyph unicode="&#xe93c;" glyph-name="cloud-download" d="M982.512 342.794c-32.297 50.203-79.895 88.136-136.127 107.545l-1.849 0.555c-1.157 0.421-2.083 1.244-2.627 2.296l-0.012 0.027c-59.251 124.903-184.329 209.733-329.22 209.733-179.356 0-328.352-129.985-357.923-300.89l-0.31-2.164c-0.357-1.954-1.795-3.498-3.659-4.003l-0.036-0.008c-88.068-27.839-150.795-108.815-150.795-204.442 0-8.981 0.553-17.833 1.628-26.524l-0.105 1.040c11.507-96.488 82.976-170.385 182.948-188.543 2.126-0.402 4.572-0.632 7.072-0.633h569.218c145.452 0.403 263.208 118.408 263.208 263.917 0 52.756-15.479 101.897-42.144 143.129l0.627-1.034zM912.31 25.248c-40.372-35.161-93.46-56.646-151.563-56.795h-570.727c-85.615 15.624-147.266 78.859-157.084 161.306-0.782 6.342-1.228 13.682-1.228 21.128 0 81.459 53.424 150.44 127.145 173.818l1.291 0.353c13.234 4.136 23.119 15.183 25.515 28.81l0.032 0.221c27.355 158.046 163.286 276.778 327.011 277.113h0.036c59.373-0.217 115.049-15.848 163.295-43.095l-1.672 0.868c60.683-34.378 108.405-85.532 137.647-147.158l0.857-2.008c4.213-8.89 11.698-15.653 20.861-18.82l0.253-0.076c92.535-31.992 157.804-118.371 157.804-219.993 0-11.773-0.876-23.341-2.566-34.642l0.157 1.275c-8.393-57.087-36.389-106.469-76.808-142.083l-0.256-0.221zM604.688 288.216l-76.853-73.369v203.744c0 8.745-7.090 15.835-15.835 15.835s-15.835-7.090-15.835-15.835v0-203.744l-76.853 73.369c-2.869 2.883-6.839 4.668-11.227 4.668-8.745 0-15.835-7.090-15.835-15.835 0-4.65 2.004-8.832 5.196-11.729l0.013-0.012 98.705-93.744c4.051-3.675 9.388-5.999 15.262-6.227l0.046-0.001h2.111c6.012 0.392 11.396 2.807 15.54 6.564l-0.021-0.019 97.861 93.427c2.848 2.863 4.608 6.809 4.608 11.167 0 8.745-7.090 15.835-15.835 15.835-4.095 0-7.827-1.555-10.639-4.106l0.013 0.012z" />
<glyph unicode="&#xe93d;" glyph-name="cloud-link" d="M184.426 16.592c2.126-0.402 4.572-0.632 7.072-0.633h201.317v-124.78c0-2.682-2.174-4.856-4.856-4.856v0h-124.041c-8.745 0-15.835-7.090-15.835-15.835s7.090-15.835 15.835-15.835v0h124.041c20.173 0 36.526 16.353 36.526 36.526v0 124.78h69.146v-145.471c0-8.745 7.090-15.835 15.835-15.835s15.835 7.090 15.835 15.835v0 145.471h73.897v-124.78c0-20.173 16.353-36.526 36.526-36.526v0h124.358c8.745 0 15.835 7.090 15.835 15.835s-7.090 15.835-15.835 15.835v0h-124.041c-2.682 0-4.856 2.174-4.856 4.856v0 124.78h129.531c145.682 0.101 263.741 118.222 263.741 263.917 0 115.702-74.454 214.014-178.065 249.639l-1.856 0.555c-1.168 0.4-2.101 1.23-2.627 2.296l-0.012 0.027c-59.251 124.903-184.329 209.733-329.22 209.733-179.356 0-328.352-129.985-357.923-300.89l-0.31-2.164c-0.357-1.954-1.795-3.498-3.659-4.003l-0.036-0.008c-88.068-27.839-150.795-108.815-150.795-204.442 0-8.981 0.553-17.833 1.628-26.524l-0.105 1.040c12.966-96.614 87.119-172.665 181.667-188.367l1.281-0.176zM64.396 334.982c23.313 32.452 56.175 56.74 94.442 68.894l1.308 0.358c13.234 4.136 23.119 15.183 25.515 28.81l0.032 0.221c27.355 158.046 163.286 276.778 327.011 277.113h0.036c0.231 0.001 0.506 0.001 0.78 0.001 131.924 0 245.756-77.461 298.494-189.382l0.852-2.012c4.213-8.89 11.698-15.653 20.861-18.82l0.253-0.076c92.876-31.801 158.456-118.349 158.456-220.213 0-128.267-103.981-232.247-232.247-232.247-0.037 0-0.074 0-0.111 0h-570.056c-85.615 15.624-147.266 78.859-157.084 161.306-0.8 6.437-1.257 13.887-1.257 21.445 0 39.131 12.243 75.403 33.108 105.193l-0.392-0.591z" />
<glyph unicode="&#xe93e;" glyph-name="cloud-refresh" d="M844.536 450.895v0c-1.157 0.421-2.083 1.244-2.627 2.296l-0.012 0.027c-59.251 124.903-184.329 209.733-329.22 209.733-179.356 0-328.352-129.985-357.923-300.89l-0.31-2.164c-0.357-1.954-1.795-3.498-3.659-4.003l-0.036-0.008c-88.068-27.839-150.795-108.815-150.795-204.442 0-8.981 0.553-17.833 1.628-26.524l-0.105 1.040c11.507-96.488 82.976-170.385 182.948-188.543 2.126-0.402 4.572-0.632 7.072-0.633h569.218c0.136 0 0.297 0 0.458 0 145.758 0 263.918 118.16 263.918 263.918 0 115.702-74.455 214.015-178.066 249.639l-1.856 0.555zM912.31 25.248c-40.372-35.161-93.46-56.646-151.563-56.795h-570.727c-85.615 15.624-147.266 78.859-157.084 161.306-0.782 6.342-1.228 13.682-1.228 21.128 0 81.459 53.424 150.44 127.145 173.818l1.291 0.353c13.234 4.136 23.119 15.183 25.515 28.81l0.032 0.221c27.355 158.046 163.286 276.778 327.011 277.113h0.036c59.373-0.217 115.049-15.848 163.295-43.095l-1.672 0.868c60.683-34.378 108.405-85.532 137.647-147.158l0.857-2.008c4.213-8.89 11.698-15.653 20.861-18.82l0.253-0.076c92.535-31.992 157.804-118.371 157.804-219.993 0-11.773-0.876-23.341-2.566-34.642l0.157 1.275c-8.393-57.087-36.389-106.469-76.808-142.083l-0.256-0.221zM634.563 283.888c-1.463 1.381-3.176 2.518-5.059 3.334l-0.113 0.044c-1.796 0.749-3.882 1.184-6.070 1.184s-4.274-0.435-6.177-1.223l0.107 0.039c-1.96-0.859-3.638-1.996-5.072-3.383l-26.492-26.492c-2.836-2.876-4.588-6.829-4.588-11.19s1.752-8.314 4.59-11.192l-0.002 0.002c2.833-2.852 6.75-4.623 11.080-4.645h0.004c-16.586-29.915-47.977-49.829-84.019-49.829-0.153 0-0.305 0-0.458 0.001h0.024c-0.319-0.004-0.696-0.006-1.073-0.006-51.261 0-92.934 41.051-93.936 92.072l-0.001 0.094c0 8.745-7.090 15.835-15.835 15.835s-15.835-7.090-15.835-15.835v0c1.068-68.618 56.944-123.834 125.716-123.834 0.339 0 0.678 0.001 1.016 0.004h-0.052c0.325-0.003 0.708-0.005 1.093-0.005 57.015 0 105.234 37.666 121.128 89.473l0.237 0.897 4.223-4.223c2.898-2.788 6.844-4.504 11.19-4.504s8.292 1.717 11.195 4.509l-0.005-0.005c2.836 2.876 4.588 6.829 4.588 11.19s-1.752 8.314-4.59 11.192l0.002-0.002zM394.609 312.496v0c1.788-0.799 3.875-1.265 6.070-1.265s4.282 0.465 6.167 1.303l-0.097-0.038c1.99 0.775 3.681 1.924 5.062 3.373l0.005 0.006 26.497 26.497c2.862 2.865 4.631 6.821 4.631 11.191 0 8.704-7.022 15.767-15.71 15.835h-0.006c16.586 29.915 47.977 49.829 84.019 49.829 0.153 0 0.305 0 0.458-0.001h-0.024c0.288 0.003 0.628 0.005 0.969 0.005 51.282 0 92.978-41.039 94.039-92.066l0.002-0.099c0-8.745 7.090-15.835 15.835-15.835s15.835 7.090 15.835 15.835v0c-1.068 68.618-56.944 123.834-125.716 123.834-0.339 0-0.678-0.001-1.016-0.004h0.052c-0.325 0.003-0.708 0.005-1.093 0.005-57.015 0-105.234-37.666-121.128-89.473l-0.237-0.897-4.117 4.223c-2.873 2.886-6.849 4.672-11.243 4.672-8.761 0-15.863-7.102-15.863-15.863 0-4.367 1.765-8.322 4.62-11.191l26.496-26.496c1.503-1.492 3.341-2.649 5.39-3.349l0.1-0.030z" />
<glyph unicode="&#xe93f;" glyph-name="cloud-save" d="M844.536 530.070c-1.168 0.4-2.101 1.23-2.627 2.296l-0.012 0.027c-59.251 124.903-184.329 209.733-329.22 209.733-179.356 0-328.352-129.985-357.923-300.89l-0.31-2.164c-0.357-1.954-1.795-3.498-3.659-4.003l-0.036-0.008c-88.068-27.839-150.795-108.815-150.795-204.442 0-8.981 0.553-17.833 1.628-26.524l-0.105 1.040c12.966-96.614 87.119-172.665 181.667-188.367l1.281-0.176c2.126-0.402 4.572-0.632 7.072-0.633h0.001c8.745 0 15.835 7.090 15.835 15.835s-7.090 15.835-15.835 15.835v0h-1.478c-85.615 15.624-147.266 78.859-157.084 161.306-0.8 6.41-1.257 13.828-1.257 21.352 0 81.41 53.453 150.336 127.176 173.596l1.289 0.351c13.207 4.179 23.072 15.205 25.514 28.806l0.033 0.225c24.279 142.542 136.891 252.901 278.598 273.522l1.788 0.214c14.212 2.168 30.608 3.406 47.293 3.406 131.971 0 245.85-77.467 298.641-189.409l0.853-2.012c4.213-8.89 11.698-15.653 20.861-18.82l0.253-0.076c92.876-31.801 158.456-118.349 158.456-220.213 0-128.267-103.981-232.247-232.247-232.247-0.037 0-0.074 0-0.111 0h0.006c-8.745 0-15.835-7.090-15.835-15.835s7.090-15.835 15.835-15.835v0c0.136 0 0.297 0 0.458 0 145.758 0 263.918 118.16 263.918 263.918 0 115.702-74.455 214.015-178.066 249.639l-1.856 0.555zM365.051-144.714c1.811-0.541 3.891-0.853 6.045-0.853 6.95 0 13.143 3.245 17.145 8.302l0.035 0.046 125.097 91.843 124.569-91.738c4.034-5.218 10.295-8.545 17.333-8.545 2.136 0 4.2 0.306 6.151 0.878l-0.154-0.039c10.687 3.654 18.234 13.61 18.234 25.328 0 0.709-0.028 1.411-0.082 2.106l0.006-0.092-2.217 381.836c-0.060 8.7-7.126 15.729-15.835 15.729 0 0 0 0 0 0h-300.972c-0.001 0-0.003 0-0.004 0-4.404 0-8.393-1.774-11.292-4.646l0.001 0.001c-2.805-2.776-4.542-6.626-4.542-10.883 0-0.108 0.001-0.216 0.003-0.324v0.016l2.006-381.414c-0.019-0.389-0.031-0.845-0.031-1.304 0-12.034 7.627-22.287 18.311-26.187l0.194-0.062zM645.648 248.839l2.006-353.333-124.886 91.949c-2.593 1.929-5.859 3.089-9.395 3.089s-6.802-1.159-9.438-3.119l0.042 0.030-125.73-92.371-2.006 353.755z" />
<glyph unicode="&#xe940;" glyph-name="cloud-upload" d="M1.478 125.959v0c11.507-96.488 82.976-170.385 182.948-188.543 2.126-0.402 4.572-0.632 7.072-0.633h569.218c145.682 0.101 263.741 118.222 263.741 263.917 0 115.702-74.454 214.014-178.065 249.639l-1.856 0.555c-1.157 0.421-2.083 1.244-2.627 2.296l-0.012 0.027c-59.251 124.903-184.329 209.733-329.22 209.733-179.356 0-328.352-129.985-357.923-300.89l-0.31-2.164c-0.357-1.954-1.795-3.498-3.659-4.003l-0.036-0.008c-88.068-27.839-150.795-108.815-150.795-204.442 0-8.981 0.553-17.833 1.628-26.524l-0.105 1.040zM760.716-31.547h-570.695c-85.615 15.624-147.266 78.859-157.084 161.306-0.782 6.342-1.228 13.682-1.228 21.128 0 81.459 53.424 150.44 127.145 173.818l1.291 0.353c13.234 4.136 23.119 15.183 25.515 28.81l0.032 0.221c27.355 158.046 163.286 276.778 327.011 277.113h0.036c59.373-0.217 115.049-15.848 163.295-43.095l-1.672 0.868c60.683-34.378 108.405-85.532 137.647-147.158l0.857-2.008c4.213-8.89 11.698-15.653 20.861-18.82l0.253-0.076c92.876-31.801 158.456-118.349 158.456-220.213 0-128.267-103.981-232.247-232.247-232.247-0.037 0-0.074 0-0.111 0h0.006zM527.835 428.198c-4.008 3.684-9.314 6.011-15.159 6.227l-0.043 0.001h-2.111c-6.056-0.339-11.487-2.765-15.643-6.563l0.019 0.018-97.861-93.427c-2.861-2.865-4.631-6.821-4.631-11.19s1.77-8.325 4.631-11.19v0c2.939-2.926 6.992-4.734 11.468-4.734 4.206 0 8.039 1.597 10.926 4.218l-0.013-0.012 76.853 73.897v-203.744c0-8.745 7.090-15.835 15.835-15.835s15.835 7.090 15.835 15.835v0 203.216l76.853-73.897c2.798-2.54 6.53-4.094 10.625-4.094 8.745 0 15.835 7.090 15.835 15.835 0 4.358-1.76 8.305-4.609 11.168l0.001-0.001z" />
<glyph unicode="&#xe941;" glyph-name="cloud" d="M142.938 68.848c1.876-0.473 4.030-0.744 6.247-0.744 0.179 0 0.358 0.002 0.536 0.005h16.23c23.707-63.651 78.782-110.485 145.924-122.085l1.131-0.162c0.964-0.075 2.087-0.118 3.22-0.118s2.256 0.043 3.368 0.127l-0.148-0.009h480.013c124.124 0.235 224.655 100.912 224.655 225.068 0 98.539-63.325 182.287-151.499 212.77l-1.582 0.476-0.845 0.739c-49.317 104.254-152.806 175.521-273.153 177.56l-0.266 0.004c-18.682 20.482-40.129 37.997-63.853 52.079l-1.282 0.705c-39.265 23.242-86.539 36.976-137.020 36.976-13.933 0-27.621-1.046-40.991-3.064l1.503 0.187c-63.772-9.971-119.113-40.426-160.325-84.307l-0.137-0.147c-39.61-42.063-67.176-95.88-76.938-155.681l-0.232-1.72c-36.524-12.408-66.631-35.723-87.24-66.019l-0.381-0.593c-18.7-27.931-29.844-62.294-29.844-99.261 0-7.094 0.41-14.093 1.209-20.973l-0.079 0.838c8.825-76.92 66.395-138.178 140.678-152.474l1.098-0.176zM841.475 370.98c3.853-8.177 10.75-14.387 19.194-17.245l0.231-0.068c77.662-26.3 132.565-98.529 132.565-183.582 0-106.811-86.588-193.399-193.399-193.399-0.213 0-0.426 0-0.639 0.001h-480.719c-59.862 9.322-107.85 51.735-125.121 107.634l-0.293 1.1c-0.195 1.57-0.566 2.997-1.097 4.342l0.042-0.119c-1.586 5.818-2.992 12.978-3.925 20.285l-0.086 0.828c-0.68 5.39-1.069 11.627-1.069 17.955 0 67.635 44.355 124.91 105.563 144.325l1.072 0.293c11.917 3.83 20.784 13.859 22.88 26.195l0.028 0.197c20.538 118.918 114.574 210.917 232.861 228.162l1.498 0.179c11.706 1.814 25.209 2.85 38.954 2.85v0c0.401 0.002 0.876 0.003 1.35 0.003 110.231 0 205.344-64.732 249.398-158.256l0.712-1.681zM56.162 323.581c17.048 25.125 41.49 44.107 70.174 53.969l0.978 0.292c11.176 3.903 19.381 13.588 21.093 25.376l0.020 0.171c8.908 54.791 33.456 102.723 68.851 140.329l-0.127-0.136c36.769 38.97 85.981 65.845 141.262 74.255l1.359 0.17c10.478 1.615 22.566 2.537 34.869 2.537 44.594 0 86.357-12.116 122.178-33.237l-1.125 0.613c14.439-8.565 26.939-17.738 38.465-27.982l-0.25 0.218-6.967-0.739c-133.51-19.34-238.336-121.878-260.91-252.581l-0.262-1.836c-0.141-0.719-0.672-1.285-1.359-1.475l-0.013-0.003c-75.292-23.842-128.909-93.091-128.909-174.862 0-7.611 0.465-15.114 1.367-22.482l-0.088 0.884c0-2.428 0.845-4.856 1.161-7.284h-8.551c-62.35 11.135-110.096 61.787-116.705 124.693l-0.052 0.615c-0.606 5.038-0.952 10.872-0.952 16.786 0 30.419 9.144 58.703 24.834 82.252l-0.341-0.544z" />
<glyph unicode="&#xe942;" glyph-name="colors" d="M426.491 789.554h-399.993c-0.031 0-0.068 0-0.106 0-14.576 0-26.392-11.816-26.392-26.392 0 0 0 0 0 0v0-907.348s0 0 0-0.633v-23.964c0-14.576 11.816-26.392 26.392-26.392v0h930.362c28.136 0.060 50.929 22.853 50.989 50.983v350.911c-0.060 28.136-22.853 50.929-50.983 50.989h-94.383l154.761 267.929c4.285 7.307 6.816 16.092 6.816 25.468 0 18.734-10.103 35.107-25.157 43.971l-0.239 0.13-304.244 175.875c-7.32 4.333-16.134 6.894-25.545 6.894-18.73 0-35.092-10.141-43.893-25.232l-0.13-0.241-171.863-298.016v308.678c0 14.576-11.816 26.392-26.392 26.392v0zM421.212 757.883v-921.389h-370.329c-0.002 0-0.005 0-0.007 0-10.426 0-18.912 8.304-19.205 18.658l-0.001 0.027v902.704zM976.073 206.718v-350.905c0-10.669-8.649-19.319-19.319-19.319h-503.871v389.542h503.871c10.669 0 19.319-8.649 19.319-19.319v0zM652.193 736.77c2.526 4.366 6.612 7.593 11.478 8.941l0.134 0.032c1.5 0.411 3.223 0.648 5.001 0.648 3.556 0 6.891-0.945 9.768-2.598l-0.095 0.051 304.244-175.98c5.766-3.388 9.575-9.56 9.575-16.621 0-3.561-0.969-6.895-2.657-9.755l0.049 0.090-163.84-283.87h-372.968v133.331zM226.441-63.956c52.473 0 95.010 42.538 95.010 95.010s-42.538 95.010-95.010 95.010c-52.473 0-95.010-42.538-95.010-95.010v0c0-52.473 42.538-95.010 95.010-95.010v0zM226.441 94.395c34.982 0 63.34-28.358 63.34-63.34s-28.358-63.34-63.34-63.34c-34.982 0-63.34 28.358-63.34 63.34v0c-0.001 0.125-0.001 0.274-0.001 0.422 0 34.982 28.358 63.34 63.34 63.34 0 0 0.001 0 0.001 0v0z" />
<glyph unicode="&#xe943;" glyph-name="copy-page" horiz-adv-x="817" d="M196.777-213.333h589.169c17.57 0.351 31.679 14.676 31.679 32.297 0 0.262-0.003 0.523-0.009 0.784l0.001-0.039v623.795c-0.012 7.526-2.424 14.487-6.51 20.16l0.070-0.103-122.247 168.907c-5.582 7.824-14.594 12.89-24.793 12.985h-30.735l-110.212 152.439c-5.621 7.743-14.628 12.731-24.801 12.774h-466.719c-17.559-0.291-31.681-14.593-31.681-32.194 0-0.298 0.004-0.596 0.012-0.892l-0.001 0.044v-792.597c-0.016-0.378-0.025-0.821-0.025-1.267 0-17.491 14.179-31.67 31.67-31.67 0.009 0 0.018 0 0.027 0h134.069v-132.381c-0.007-0.258-0.012-0.561-0.012-0.865 0-17.378 13.767-31.541 30.99-32.176l0.058-0.002zM196.777 645.243c-17.559-0.291-31.681-14.593-31.681-32.194 0-0.298 0.004-0.596 0.012-0.892l-0.001 0.044v-628.44h-133.437c-0.049 0.19-0.077 0.409-0.077 0.633s0.028 0.443 0.081 0.652l-0.004-0.018v792.597c0 0.845 0 1.372 0 1.372h466.078l96.805-133.859zM785.735-181.663h-588.219c-0.071 0.237-0.112 0.51-0.112 0.792s0.041 0.555 0.117 0.812l-0.005-0.020v792.28c0 0.739 0 1.372 0 1.372h465.973l122.141-168.907c0.064-0.221 0.101-0.476 0.101-0.739s-0.037-0.517-0.106-0.758l0.005 0.019v-623.479c0-0.739-0.317-1.372 0.106-1.372z" />
<glyph unicode="&#xe944;" glyph-name="copy" d="M43.388-213.333h606.482c23.938 0.060 43.328 19.45 43.388 43.382v287.359h304.35c14.576 0 26.392 11.816 26.392 26.392v0 640.475c0 14.576-11.816 26.392-26.392 26.392v0h-640.475c-14.552-0.060-26.332-11.84-26.392-26.386v-304.356h-287.353c-23.938-0.060-43.328-19.45-43.388-43.382v-606.488c0-23.963 19.425-43.388 43.388-43.388v0zM357.133 117.408h304.455v-287.353c0-6.472-5.246-11.718-11.718-11.718v0h-606.482c-6.472 0-11.718 5.246-11.718 11.718v0 606.482c0 6.472 5.246 11.718 11.718 11.718v0h287.353v-304.455c0.060-14.552 11.84-26.332 26.386-26.392h0.006zM362.412 149.079v629.918h629.918v-629.918z" />
<glyph unicode="&#xe945;" glyph-name="credit-card" d="M1024 583.698c0 14.576-11.816 26.392-26.392 26.392v0h-971.216c-14.576 0-26.392-11.816-26.392-26.392v0-564.784c0-14.576 11.816-26.392 26.392-26.392v0h971.216c14.576 0 26.392 11.816 26.392 26.392v0zM992.33 578.42v-124.991h-960.66v124.991zM31.67 23.771v397.988h960.66v-397.988zM447.499 171.353h-290.309c-8.745 0-15.835-7.090-15.835-15.835s7.090-15.835 15.835-15.835v0h290.309c8.745 0 15.835 7.090 15.835 15.835s-7.090 15.835-15.835 15.835v0z" />
<glyph unicode="&#xe946;" glyph-name="crop-2" d="M15.835 665.723h97.438v-749.526c0-8.745 7.090-15.835 15.835-15.835v0h749.526v-97.861c0-8.745 7.090-15.835 15.835-15.835s15.835 7.090 15.835 15.835v0 97.438h97.861c8.745 0 15.835 7.090 15.835 15.835s-7.090 15.835-15.835 15.835v0h-97.438v749.526c-0.059 8.721-7.114 15.776-15.829 15.835h-749.532v97.861c0 8.745-7.090 15.835-15.835 15.835s-15.835-7.090-15.835-15.835v0-97.438h-97.861c-8.745 0-15.835-7.090-15.835-15.835s7.090-15.835 15.835-15.835v0zM879.056 665.723v-734.113h-734.113v734.113z" />
<glyph unicode="&#xe947;" glyph-name="crop" d="M1008.165 558.679h-73.897v73.897c0 8.745-7.090 15.835-15.835 15.835s-15.835-7.090-15.835-15.835v0-73.897h-586.953c-8.745 0-15.835-7.090-15.835-15.835v0-587.375h-73.897c-8.745 0-15.835-7.090-15.835-15.835s7.090-15.835 15.835-15.835v0h73.897v-73.897c0-8.745 7.090-15.835 15.835-15.835s15.835 7.090 15.835 15.835v0 73.897h586.953c8.745 0 15.835 7.090 15.835 15.835v0 587.375h73.897c8.745 0 15.835 7.090 15.835 15.835s-7.090 15.835-15.835 15.835v0zM902.598-44.531h-571.118v571.54h571.54zM321.24 731.492h163.629c8.745 0 15.835 7.090 15.835 15.835s-7.090 15.835-15.835 15.835v0h-163.629c-130.7 0-236.667-105.893-236.787-236.564v-90.694l-57.64 55.634c-2.845 2.731-6.716 4.412-10.979 4.412-8.763 0-15.866-7.103-15.866-15.866 0-4.499 1.873-8.561 4.882-11.449l80.342-76.647c3.5-3.127 8.022-5.176 13.009-5.59l0.081-0.005h2.217c0.491-0.050 1.060-0.078 1.636-0.078s1.146 0.028 1.707 0.084l-0.071-0.006c4.807 0.771 9.024 2.881 12.37 5.929l-0.019-0.017 79.914 76.325c2.848 2.863 4.608 6.809 4.608 11.167 0 8.745-7.090 15.835-15.835 15.835-4.095 0-7.827-1.555-10.639-4.106l0.013 0.012-58.062-55.634v90.682c0.12 113.192 91.908 204.906 205.117 204.906 0 0 0 0 0 0v0z" />
<glyph unicode="&#xe948;" glyph-name="cross" d="M0-197.498c0.004-4.371 1.778-8.327 4.645-11.19v0c2.898-2.788 6.844-4.504 11.19-4.504s8.292 1.717 11.195 4.509l484.97 484.97 484.975-484.975c2.899-3.105 7.016-5.040 11.585-5.040 8.745 0 15.835 7.090 15.835 15.835 0 4.569-1.935 8.686-5.031 11.577l-484.984 484.984 484.975 484.975c2.633 2.82 4.25 6.619 4.25 10.795 0 8.745-7.090 15.835-15.835 15.835-4.176 0-7.975-1.617-10.804-4.258l-484.966-484.966-484.975 484.975c-2.82 2.633-6.619 4.25-10.795 4.25-8.745 0-15.835-7.090-15.835-15.835 0-4.176 1.617-7.975 4.258-10.804l484.966-484.966-484.975-484.975c-2.867-2.863-4.641-6.819-4.645-11.189v-0.001z" />
<glyph unicode="&#xe949;" glyph-name="cube" horiz-adv-x="874" d="M450.324 806.98c-3.834 2.335-8.471 3.717-13.431 3.717s-9.597-1.382-13.547-3.782l0.116 0.065-410.822-242.28c-7.635-4.727-12.646-13.056-12.646-22.556 0-0.18 0.002-0.36 0.005-0.54v0.027-485.929c0-0.007 0-0.016 0-0.025 0-9.593 5.15-17.983 12.836-22.557l0.121-0.066 410.822-242.806c3.79-2.251 8.355-3.582 13.232-3.582 0.052 0 0.103 0 0.154 0h-0.008c0.016 0 0.035 0 0.054 0 4.942 0 9.574 1.33 13.557 3.651l-0.128-0.069 410.822 242.806c7.747 4.653 12.851 13.011 12.851 22.561 0 0.030 0 0.061 0 0.091v-0.005 485.929c-0.036 9.591-5.173 17.974-12.837 22.581l-0.119 0.067zM436.841 778.223l389.754-230.271-389.754-230.903-390.702 230.271zM31.602 519.089l389.754-229.428v-461.279l-389.754 230.271zM452.958-171.619v461.279l389.754 230.903v-461.911z" />
<glyph unicode="&#xe94a;" glyph-name="cursor" horiz-adv-x="1026" d="M983.294 507.326l-902.833 300.169c-5.773 1.993-12.425 3.143-19.346 3.143-33.751 0-61.112-27.361-61.112-61.112 0-6.95 1.16-13.63 3.298-19.855l-0.128 0.43 301.543-901.67c7.659-23.435 28.772-40.298 53.994-41.547l0.14-0.006h4.018c0.108-0.001 0.237-0.001 0.365-0.001 24.035 0 44.783 14.069 54.459 34.421l0.156 0.365 180.376 375.766c2.944 6.066 7.707 10.863 13.572 13.773l0.173 0.077 378.938 183.020c20.536 10.14 34.412 30.935 34.412 54.971 0 26.926-17.414 49.785-41.594 57.929l-0.431 0.126zM976.738 422.742l-378.515-182.385c-12.556-6.176-22.477-16.097-28.492-28.291l-0.161-0.362-180.376-376.612c-4.674-9.933-14.599-16.687-26.102-16.687-0.786 0-1.565 0.032-2.335 0.093l0.101-0.007c-12.292 0.481-22.544 8.692-26.061 19.887l-0.055 0.202-301.438 901.564c-0.955 2.777-1.507 5.978-1.507 9.307 0 16.152 12.982 29.273 29.081 29.496h0.021c3.409-0.011 6.679-0.591 9.726-1.649l-0.21 0.064 903.256-300.063c11.841-3.975 20.22-14.972 20.22-27.925 0-11.631-6.755-21.684-16.557-26.449l-0.175-0.077z" />
<glyph unicode="&#xe94b;" glyph-name="dark-mode" d="M239.215 770.235c-3.167 2.282-7.124 3.649-11.401 3.649s-8.235-1.367-11.46-3.689l0.058 0.040c-131.854-96.443-216.527-250.603-216.527-424.54 0-274.157 210.36-499.181 478.477-522.469l1.968-0.138c14.568-1.161 29.348-1.795 43.81-1.795 0.34-0.001 0.742-0.001 1.144-0.001 230.712 0 426.601 149.092 496.576 356.185l1.083 3.694c0.592 1.792 0.933 3.855 0.933 5.998 0 10.903-8.838 19.741-19.741 19.741-4.042 0-7.8-1.215-10.929-3.299l0.072 0.045c-76.14-51.193-169.894-81.71-270.776-81.71-0.298 0-0.597 0-0.895 0.001h0.047c-272.46 0.295-493.218 221.236-493.218 493.737 0 47.237 6.633 92.924 19.020 136.181l-0.853-3.483c0.541 1.721 0.852 3.7 0.852 5.752 0 6.603-3.224 12.453-8.185 16.061l-0.057 0.040zM721.656 90.489c0.212 0 0.462 0 0.712 0 95.19 0 184.432 25.468 261.283 69.961l-2.512-1.342c-74.911-182.779-251.453-309.177-457.517-309.177-272.334 0-493.104 220.77-493.104 493.104 0 52.297 8.141 102.693 23.226 149.989l-0.961-3.491c29.775 94.086 83.742 173.423 154.655 233.328l0.74 0.609c-6.718-31.699-10.565-68.12-10.565-105.439 0-1.047 0.003-2.094 0.009-3.139l-0.001 0.161c0.36-289.378 234.699-523.903 523.972-524.562h0.063z" />
<glyph unicode="&#xe94c;" glyph-name="desktop" d="M1024 736.77c0 14.576-11.816 26.392-26.392 26.392v0h-971.216c-14.576 0-26.392-11.816-26.392-26.392v0-647.548c0.060-14.552 11.84-26.332 26.386-26.392h469.779v-192.66h-324.196c-8.745 0-15.835-7.090-15.835-15.835s7.090-15.835 15.835-15.835v0h680.063c8.745 0 15.835 7.090 15.835 15.835s-7.090 15.835-15.835 15.835v0h-324.196v192.66h469.773c14.552 0.060 26.332 11.84 26.392 26.386v0.006zM992.33 94.5h-960.66v636.991h960.66z" />
</font>
</defs>
</svg>
